[ Сегодня идет свободное скачивание без начисления Download ]


Статистика раздачи
Нет
 
   
 
Top  
 
 
Сделка Оливера / Oliver's Deal (2015) WEB-DLRip - Производство: США, Испания, Перу
Жанр: триллер, драма, детектив
Режиссер: Барни Эллиотт
Актеры: Стивен Дорфф, Дэвид Стрэтэйрн, Брук Лэнгтон, Карлос Бардем, Альберто Амман, Эльза Оливеро, Амиел Кайо, Мелвин Квиджада, Лучо Касерес, Марко Антонио Рамирез и др.
Описание:
События фильма разворачиваются на фоне международной финансовой сделки в Нью-Йорке и Перу.

Дата мировой премьеры: 18 апреля 2015
Продолжительность: 01:39:15
Качество видео: WEB-DLRip СЭМПЛ
Перевод: Многоголосый закадровый, профессиональный [СПД]
Реклама: присутствуют аудио и видео вставки рекламы.
Видео: XVID, 1 578 kb/s, 720х304
Аудио: AC-3, 384 kb/s, 2 ch, 48.0 kHz

Информация по видеофайлу

Код:
Oliver-'s.Deal.2015.P.WEB-DLRip.14OOMB.avi
Format                         : AVI
Format/Info                    : Audio Video Interleave
File size                      : 1.37 GiB
Duration                       : 1 h 39 min
Overall bit rate               : 1 971 kb/s
Writing application            : VirtualDubMod 1.5.10.2 (build 2540/release)
Writing library                : VirtualDubMod build 2540/release
Video
ID                             : 0
Format                         : MPEG-4 Visual
Format profile                 : Advanced Simple@L5
Format settings, BVOP          : 2
Format settings, QPel          : No
Format settings, GMC           : No warppoints
Format settings, Matrix        : Custom
Codec ID                       : XVID
Codec ID/Hint                  : XviD
Duration                       : 1 h 39 min
Bit rate                       : 1 578 kb/s
Width                          : 720 pixels
Height                         : 304 pixels
Display aspect ratio           : 2.35:1
Frame rate                     : 24.000 FPS
Color space                    : YUV
Chroma subsampling             : 4:2:0
Bit depth                      : 8 bits
Scan type                      : Progressive
Compression mode               : Lossy
Bits/(Pixel*Frame)             : 0.300
Stream size                    : 1.09 GiB (80%)
Writing library                : XviD 1.2.1 (UTC 2008-12-04)
Audio
ID                             : 1
Format                         : AC-3
Format/Info                    : Audio Coding 3
Mode extension                 : CM (complete main)
Format settings, Endianness    : Big
Codec ID                       : 2000
Duration                       : 1 h 39 min
Bit rate mode                  : Constant
Bit rate                       : 384 kb/s
Channel(s)                     : 2 channels
Channel positions              : Front: L R
Sampling rate                  : 48.0 kHz
Frame rate                     : 31.250 FPS (1536 spf)
Compression mode               : Lossy
Stream size                    : 273 MiB (19%)
Alignment                      : Split accross interleaves
Interleave, duration           : 42  ms (1.00 video frame)
Interleave, preload duration   : 500  ms
Скриншоты:

[Цитировать]



Показать сообщения:    

Текущее время: 08-Дек 05:12

Часовой пояс: UTC + 3


Вы не можете начинать темы
Вы не можете отвечать на сообщения
Вы не можете редактировать свои сообщения
Вы не можете удалять свои сообщения
Вы не можете голосовать в опросах
Вы не можете прикреплять файлы к сообщениям
Вы не можете скачивать файлы

!ВНИМАНИЕ!
Сайт не предоставляет электронные версии произведений, а занимается лишь коллекционированием и каталогизацией ссылок, присылаемых и публикуемых на форуме нашими читателями. Если вы являетесь правообладателем какого-либо представленного материала и не желаете, чтобы ссылка на него находилась в нашем каталоге, свяжитесь с нами, и мы незамедлительно удалим ее. Файлы для обмена на трекере предоставлены пользователями сайта, и администрация не несет ответственности за их содержание. Просьба не заливать файлы, защищенные авторскими правами, а также файлы нелегального содержания!