[ Сегодня идет свободное скачивание без начисления Download ]


Статистика раздачи
Нет
 
   
 
Top  
 
 
-The Beatles - 1 + (Remixed & Remastered)--
Год издания: 2015
Страна: England
Жанр: Rock, Rock'n'Roll
Продолжительность: 01:19:15-Лейбл издания: Universal Music Group
Страна-выпуска диска: Italia -Формат: FLAC
Битрейт аудио: Lossless
Тип рипа: tracks +.cue
Наличие сканов в содержимом раздачи: да
-

Трэклист


01. Love Me Do (2:21)
02. From Me to You (1:56)
03. She Loves You (2:21)
04. I Want to Hold Your Hand (2:26)
05. Can't Buy Me Love (2:11)
06. A Hard Day's Night (2:33)
07. I Feel Fine (2:19)
08. Eight Days a Week (2:43)
09. Ticket to Ride (3:10)
10. Help! (2:19)
11. Yesterday (2:05)
12. Day Tripper (2:49)
13. We Can Work It Out (2:16)
14. Paperback Writer (2:18)
15. Yellow Submarine (2:39)
16. Eleanor Rigby (2:06)
17. Penny Lane (3:01)
18. All You Need Is Love (3:48)
19. Hello, Goodbye (3:28)
20. Lady Madonna (2:17)
21. Hey Jude (7:06)
22. Get Back (3:12)
23. The Ballad of John and Yoko (2:59)
24. Something (3:01)
25. Come Together (4:19)
26. Let It Be (3:50)
27. The Long and Winding Road (3:42)
-

Лог создания рипа

Exact Audio Copy V1.0 beta 3 from 29. August 2011
EAC extraction logfile from 6. November 2015, 12:48
The Beatles / 1
Used drive  : TSSTcorpDVD+-RW SH-216CB   Adapter: 0  ID: 1
Read mode               : Secure
Utilize accurate stream : Yes
Defeat audio cache      : Yes
Make use of C2 pointers : No
Read offset correction                      : 6
Overread into Lead-In and Lead-Out          : No
Fill up missing offset samples with silence : Yes
Delete leading and trailing silent blocks   : No
Null samples used in CRC calculations       : Yes
Used interface                              : Native Win32 interface for Win NT & 2000
Gap handling                                : Appended to previous track
Used output format : Internal WAV Routines
Sample format      : 44.100 Hz; 16 Bit; Stereo
TOC of the extracted CD
     Track |   Start  |  Length  | Start sector | End sector
    ---------------------------------------------------------
        1  |  0:00.00 |  2:21.02 |         0    |    10576
        2  |  2:21.02 |  1:56.12 |     10577    |    19288
        3  |  4:17.14 |  2:20.69 |     19289    |    29857
        4  |  6:38.08 |  2:25.56 |     29858    |    40788
        5  |  9:03.64 |  2:11.16 |     40789    |    50629
        6  | 11:15.05 |  2:32.69 |     50630    |    62098
        7  | 13:47.74 |  2:19.26 |     62099    |    72549
        8  | 16:07.25 |  2:43.24 |     72550    |    84798
        9  | 18:50.49 |  3:10.09 |     84799    |    99057
       10  | 22:00.58 |  2:19.18 |     99058    |   109500
       11  | 24:20.01 |  2:05.24 |    109501    |   118899
       12  | 26:25.25 |  2:49.00 |    118900    |   131574
       13  | 29:14.25 |  2:15.52 |    131575    |   141751
       14  | 31:30.02 |  2:18.15 |    141752    |   152116
       15  | 33:48.17 |  2:38.60 |    152117    |   164026
       16  | 36:27.02 |  2:05.65 |    164027    |   173466
       17  | 38:32.67 |  3:00.39 |    173467    |   187005
       18  | 41:33.31 |  3:47.57 |    187006    |   204087
       19  | 45:21.13 |  3:27.59 |    204088    |   219671
       20  | 48:48.72 |  2:16.62 |    219672    |   229933
       21  | 51:05.59 |  7:05.49 |    229934    |   261857
       22  | 58:11.33 |  3:11.58 |    261858    |   276240
       23  | 61:23.16 |  2:59.36 |    276241    |   289701
       24  | 64:22.52 |  3:01.31 |    289702    |   303307
       25  | 67:24.08 |  4:18.52 |    303308    |   322709
       26  | 71:42.60 |  3:50.33 |    322710    |   339992
       27  | 75:33.18 |  3:41.45 |    339993    |   356612
Track  1
     Filename C:\Users\Gelato\The Beatles - 1 (2015) FLAC\01 Love Me Do.wav
     Pre-gap length  0:00:02.00
     Peak level 95.4 %
     Extraction speed 1.7 X
     Track quality 100.0 %
     Test CRC 68C4ACC3
     Copy CRC 68C4ACC3
     Track not present in AccurateRip database
     Copy OK
Track  2
     Filename C:\Users\Gelato\The Beatles - 1 (2015) FLAC\02 From Me To You.wav
     Peak level 93.9 %
     Extraction speed 1.4 X
     Track quality 99.9 %
     Test CRC D23AC695
     Copy CRC D23AC695
     Track not present in AccurateRip database
     Copy OK
Track  3
     Filename C:\Users\Gelato\The Beatles - 1 (2015) FLAC\03 She Loves You.wav
     Peak level 82.5 %
     Extraction speed 1.9 X
     Track quality 100.0 %
     Test CRC A7DE30C0
     Copy CRC A7DE30C0
     Track not present in AccurateRip database
     Copy OK
Track  4
     Filename C:\Users\Gelato\The Beatles - 1 (2015) FLAC\04 I Want To Hold Your Hand.wav
     Peak level 95.4 %
     Extraction speed 1.6 X
     Track quality 99.9 %
     Test CRC 49B6C883
     Copy CRC 49B6C883
     Track not present in AccurateRip database
     Copy OK
Track  5
     Filename C:\Users\Gelato\The Beatles - 1 (2015) FLAC\05 Can't Buy Me Love.wav
     Peak level 95.6 %
     Extraction speed 2.1 X
     Track quality 100.0 %
     Test CRC 9087EC76
     Copy CRC 9087EC76
     Track not present in AccurateRip database
     Copy OK
Track  6
     Filename C:\Users\Gelato\The Beatles - 1 (2015) FLAC\06 A Hard Day's Night.wav
     Peak level 97.4 %
     Extraction speed 2.2 X
     Track quality 100.0 %
     Test CRC 32CA3495
     Copy CRC 32CA3495
     Track not present in AccurateRip database
     Copy OK
Track  7
     Filename C:\Users\Gelato\The Beatles - 1 (2015) FLAC\07 I Feel Fine.wav
     Peak level 95.9 %
     Extraction speed 2.3 X
     Track quality 100.0 %
     Test CRC 8FF8A756
     Copy CRC 8FF8A756
     Track not present in AccurateRip database
     Copy OK
Track  8
     Filename C:\Users\Gelato\The Beatles - 1 (2015) FLAC\08 Eight Days A Week.wav
     Peak level 97.0 %
     Extraction speed 1.8 X
     Track quality 99.9 %
     Test CRC A4E1A947
     Copy CRC A4E1A947
     Track not present in AccurateRip database
     Copy OK
Track  9
     Filename C:\Users\Gelato\The Beatles - 1 (2015) FLAC\09 Ticket To Ride.wav
     Peak level 95.6 %
     Extraction speed 2.6 X
     Track quality 100.0 %
     Test CRC 54D80D23
     Copy CRC 54D80D23
     Track not present in AccurateRip database
     Copy OK
Track 10
     Filename C:\Users\Gelato\The Beatles - 1 (2015) FLAC\10 Help!.wav
     Peak level 96.6 %
     Extraction speed 2.5 X
     Track quality 100.0 %
     Test CRC 13014304
     Copy CRC 13014304
     Track not present in AccurateRip database
     Copy OK
Track 11
     Filename C:\Users\Gelato\The Beatles - 1 (2015) FLAC\11 Yesterday.wav
     Peak level 94.6 %
     Extraction speed 2.5 X
     Track quality 100.0 %
     Test CRC 123F22A7
     Copy CRC 123F22A7
     Track not present in AccurateRip database
     Copy OK
Track 12
     Filename C:\Users\Gelato\The Beatles - 1 (2015) FLAC\12 Day Tripper.wav
     Peak level 96.4 %
     Extraction speed 2.0 X
     Track quality 99.9 %
     Test CRC F9DA9399
     Copy CRC F9DA9399
     Track not present in AccurateRip database
     Copy OK
Track 13
     Filename C:\Users\Gelato\The Beatles - 1 (2015) FLAC\13 We Can Work It Out.wav
     Peak level 98.0 %
     Extraction speed 2.7 X
     Track quality 100.0 %
     Test CRC 31832271
     Copy CRC 31832271
     Track not present in AccurateRip database
     Copy OK
Track 14
     Filename C:\Users\Gelato\The Beatles - 1 (2015) FLAC\14 Paperback Writer.wav
     Peak level 96.2 %
     Extraction speed 2.8 X
     Track quality 100.0 %
     Test CRC 6DD08E34
     Copy CRC 6DD08E34
     Track not present in AccurateRip database
     Copy OK
Track 15
     Filename C:\Users\Gelato\The Beatles - 1 (2015) FLAC\15 Yellow Submarine.wav
     Peak level 96.0 %
     Extraction speed 2.9 X
     Track quality 100.0 %
     Test CRC 14BAA4FC
     Copy CRC 14BAA4FC
     Track not present in AccurateRip database
     Copy OK
Track 16
     Filename C:\Users\Gelato\The Beatles - 1 (2015) FLAC\16 Eleanor Rigby.wav
     Peak level 95.1 %
     Extraction speed 2.8 X
     Track quality 100.0 %
     Test CRC 01E5D584
     Copy CRC 01E5D584
     Track not present in AccurateRip database
     Copy OK
Track 17
     Filename C:\Users\Gelato\The Beatles - 1 (2015) FLAC\17 Penny Lane.wav
     Peak level 96.0 %
     Extraction speed 3.1 X
     Track quality 100.0 %
     Test CRC 99AC610D
     Copy CRC 99AC610D
     Track not present in AccurateRip database
     Copy OK
Track 18
     Filename C:\Users\Gelato\The Beatles - 1 (2015) FLAC\18 All You Need Is Love.wav
     Peak level 97.1 %
     Extraction speed 2.5 X
     Track quality 99.9 %
     Test CRC 9FD7E5A0
     Copy CRC 9FD7E5A0
     Track not present in AccurateRip database
     Copy OK
Track 19
     Filename C:\Users\Gelato\The Beatles - 1 (2015) FLAC\19 Hello, Goodbye.wav
     Peak level 97.6 %
     Extraction speed 2.4 X
     Track quality 99.9 %
     Test CRC 1B675AC4
     Copy CRC 1B675AC4
     Track not present in AccurateRip database
     Copy OK
Track 20
     Filename C:\Users\Gelato\The Beatles - 1 (2015) FLAC\20 Lady Madonna.wav
     Peak level 97.8 %
     Extraction speed 3.2 X
     Track quality 100.0 %
     Test CRC A17D4965
     Copy CRC A17D4965
     Track not present in AccurateRip database
     Copy OK
Track 21
     Filename C:\Users\Gelato\The Beatles - 1 (2015) FLAC\21 Hey Jude.wav
     Peak level 98.9 %
     Extraction speed 3.9 X
     Track quality 100.0 %
     Test CRC 3F45C229
     Copy CRC 3F45C229
     Track not present in AccurateRip database
     Copy OK
Track 22
     Filename C:\Users\Gelato\The Beatles - 1 (2015) FLAC\22 Get Back.wav
     Peak level 97.0 %
     Extraction speed 3.6 X
     Track quality 100.0 %
     Test CRC 74BC47FB
     Copy CRC 74BC47FB
     Track not present in AccurateRip database
     Copy OK
Track 23
     Filename C:\Users\Gelato\The Beatles - 1 (2015) FLAC\23 The Ballad Of John And Yoko.wav
     Peak level 98.4 %
     Extraction speed 3.7 X
     Track quality 100.0 %
     Test CRC 668AD768
     Copy CRC 668AD768
     Track not present in AccurateRip database
     Copy OK
Track 24
     Filename C:\Users\Gelato\The Beatles - 1 (2015) FLAC\24 Something.wav
     Peak level 95.7 %
     Extraction speed 3.7 X
     Track quality 100.0 %
     Test CRC CC7DBF36
     Copy CRC CC7DBF36
     Track not present in AccurateRip database
     Copy OK
Track 25
     Filename C:\Users\Gelato\The Beatles - 1 (2015) FLAC\25 Come Together.wav
     Peak level 98.9 %
     Extraction speed 4.0 X
     Track quality 100.0 %
     Test CRC 589A02FE
     Copy CRC 589A02FE
     Track not present in AccurateRip database
     Copy OK
Track 26
     Filename C:\Users\Gelato\The Beatles - 1 (2015) FLAC\26 Let It Be.wav
     Peak level 94.6 %
     Extraction speed 4.0 X
     Track quality 100.0 %
     Test CRC 730FE3E1
     Copy CRC 730FE3E1
     Track not present in AccurateRip database
     Copy OK
Track 27
     Filename C:\Users\Gelato\The Beatles - 1 (2015) FLAC\27 The Long And Winding Road.wav
     Peak level 94.1 %
     Extraction speed 4.1 X
     Track quality 100.0 %
     Test CRC E76D56E1
     Copy CRC E76D56E1
     Track not present in AccurateRip database
     Copy OK
None of the tracks are present in the AccurateRip database
No errors occurred
End of status report

Индексная карта (non-compilant .cue)

REM GENRE Rock
REM DATE 2015
REM DISCID 8F12921B
REM COMMENT "ExactAudioCopy v1.0b3"
PERFORMER "The Beatles"
TITLE "1 +"
FILE "01 Love Me Do.flac" WAVE
  TRACK 01 AUDIO
    PERFORMER "The Beatles"
    TITLE "Love Me Do"
    INDEX 01 00:00:00
FILE "02 From Me to You.flac" WAVE
  TRACK 02 AUDIO
    PERFORMER "The Beatles"
    TITLE "From Me to You"
    INDEX 01 00:00:00
FILE "03 She Loves You.flac" WAVE
  TRACK 03 AUDIO
    PERFORMER "The Beatles"
    TITLE "She Loves You"
    INDEX 01 00:00:00
FILE "04 I Want to Hold Your Hand.flac" WAVE
  TRACK 04 AUDIO
    PERFORMER "The Beatles"
    TITLE "I Want to Hold Your Hand"
    INDEX 01 00:00:00
FILE "05 Can't Buy Me Love.flac" WAVE
  TRACK 05 AUDIO
    PERFORMER "The Beatles"
    TITLE "Can't Buy Me Love"
    INDEX 01 00:00:00
FILE "06 A Hard Day's Night.flac" WAVE
  TRACK 06 AUDIO
    PERFORMER "The Beatles"
    TITLE "A Hard Day's Night"
    INDEX 01 00:00:00
FILE "07 I Feel Fine.flac" WAVE
  TRACK 07 AUDIO
    PERFORMER "The Beatles"
    TITLE "I Feel Fine"
    INDEX 01 00:00:00
FILE "08 Eight Days a Week.flac" WAVE
  TRACK 08 AUDIO
    PERFORMER "The Beatles"
    TITLE "Eight Days a Week"
    INDEX 01 00:00:00
FILE "09 Ticket to Ride.flac" WAVE
  TRACK 09 AUDIO
    PERFORMER "The Beatles"
    TITLE "Ticket to Ride"
    INDEX 01 00:00:00
FILE "10 Help!.flac" WAVE
  TRACK 10 AUDIO
    PERFORMER "The Beatles"
    TITLE "Help!"
    INDEX 01 00:00:00
FILE "11 Yesterday.flac" WAVE
  TRACK 11 AUDIO
    PERFORMER "The Beatles"
    TITLE "Yesterday"
    INDEX 01 00:00:00
FILE "12 Day Tripper.flac" WAVE
  TRACK 12 AUDIO
    PERFORMER "The Beatles"
    TITLE "Day Tripper"
    INDEX 01 00:00:00
FILE "13 We Can Work It Out.flac" WAVE
  TRACK 13 AUDIO
    PERFORMER "The Beatles"
    TITLE "We Can Work It Out"
    INDEX 01 00:00:00
FILE "14 Paperback Writer.flac" WAVE
  TRACK 14 AUDIO
    PERFORMER "The Beatles"
    TITLE "Paperback Writer"
    INDEX 01 00:00:00
FILE "15 Yellow Submarine.flac" WAVE
  TRACK 15 AUDIO
    PERFORMER "The Beatles"
    TITLE "Yellow Submarine"
    INDEX 01 00:00:00
FILE "16 Eleanor Rigby.flac" WAVE
  TRACK 16 AUDIO
    PERFORMER "The Beatles"
    TITLE "Eleanor Rigby"
    INDEX 01 00:00:00
FILE "17 Penny Lane.flac" WAVE
  TRACK 17 AUDIO
    PERFORMER "The Beatles"
    TITLE "Penny Lane"
    INDEX 01 00:00:00
FILE "18 All You Need Is Love.flac" WAVE
  TRACK 18 AUDIO
    PERFORMER "The Beatles"
    TITLE "All You Need Is Love"
    INDEX 01 00:00:00
FILE "19 Hello, Goodbye.flac" WAVE
  TRACK 19 AUDIO
    PERFORMER "The Beatles"
    TITLE "Hello, Goodbye"
    INDEX 01 00:00:00
FILE "20 Lady Madonna.flac" WAVE
  TRACK 20 AUDIO
    PERFORMER "The Beatles"
    TITLE "Lady Madonna"
    INDEX 01 00:00:00
FILE "21 Hey Jude.flac" WAVE
  TRACK 21 AUDIO
    PERFORMER "The Beatles"
    TITLE "Hey Jude"
    INDEX 01 00:00:00
FILE "22 Get Back.flac" WAVE
  TRACK 22 AUDIO
    PERFORMER "The Beatles"
    TITLE "Get Back"
    INDEX 01 00:00:00
FILE "23 The Ballad of John and Yoko.flac" WAVE
  TRACK 23 AUDIO
    PERFORMER "The Beatles"
    TITLE "The Ballad of John and Yoko"
    INDEX 01 00:00:00
FILE "24 Something.flac" WAVE
  TRACK 24 AUDIO
    PERFORMER "The Beatles"
    TITLE "Something"
    INDEX 01 00:00:00
FILE "25 Come Together.flac" WAVE
  TRACK 25 AUDIO
    PERFORMER "The Beatles"
    TITLE "Come Together"
    INDEX 01 00:00:00
FILE "26 Let It Be.flac" WAVE
  TRACK 26 AUDIO
    PERFORMER "The Beatles"
    TITLE "Let It Be"
    INDEX 01 00:00:00
FILE "27 The Long and Winding Road.flac" WAVE
  TRACK 27 AUDIO
    PERFORMER "The Beatles"
    TITLE "The Long and Winding Road"
    INDEX 01 00:00:00
--

[Цитировать]



Показать сообщения:    

Текущее время: 10-Дек 00:19

Часовой пояс: UTC + 3


Вы не можете начинать темы
Вы не можете отвечать на сообщения
Вы не можете редактировать свои сообщения
Вы не можете удалять свои сообщения
Вы не можете голосовать в опросах
Вы не можете прикреплять файлы к сообщениям
Вы не можете скачивать файлы

!ВНИМАНИЕ!
Сайт не предоставляет электронные версии произведений, а занимается лишь коллекционированием и каталогизацией ссылок, присылаемых и публикуемых на форуме нашими читателями. Если вы являетесь правообладателем какого-либо представленного материала и не желаете, чтобы ссылка на него находилась в нашем каталоге, свяжитесь с нами, и мы незамедлительно удалим ее. Файлы для обмена на трекере предоставлены пользователями сайта, и администрация не несет ответственности за их содержание. Просьба не заливать файлы, защищенные авторскими правами, а также файлы нелегального содержания!