[ Сегодня идет свободное скачивание без начисления Download ]


Статистика раздачи
Нет
 
   
 
Top  
 
 
-Семь психопатов / Seven Psychopaths (2012) BDRip- Русское название: Семь психопатов
Оригинальное название: Seven Psychopaths
Год выпуска: 2012
Производство: Великобритания, Blueprint Pictures, British Film Institute (BFI), Film4
Жанр: Комедия, Криминал
Перевод: Дублированный, Авторский одноголосый закадровый Гоблин_Пучков.Д.Ю. (Присутствует ненормативная лексика!)
Субтитры: Вшитые отключаемые
Язык субтитров: Русский
Дата мировой премьеры: 7 сентября 2012
Дата российской премьеры: 18 октября 2012, «Каравелла DDC»
Дата выхода DVD релиза: 6 февраля 2013, «Кармен Видео», «ВС трейд», ...
Режиссер: Мартин МакДона
Продюсер: Грэхэм Броадбент, Питер Чернин, Мартин МакДона, ...
Актеры: Колин Фаррелл, Вуди Харрельсон, Сэм Рокуэлл, Эбби Корниш, Кристофер Уокен, Ольга Куриленко, Желько Иванек, Том Уэйтс, Кевин Корригэн, Хелена Мэттссон, Сэнди Мартин, Габури Сидибе, Брендан Секстон, Джозеф Лайл Тейлор, Ронни Джин Блевинс
Описание фильма:
Незадачливый сценарист Марти утратил вдохновение и никак не может справиться с новым сценарием. Волей случая он оказывается втянутым в похищение собаки, затеянное его эксцентричными дружками. Выясняется, что украденное животное — любимый пёс главного местного гангстера, которому ничего не стоит в два счета вычислить и уничтожить горе-похитителей...
Запрещено к просмотру зрителям, не достигшим 18 лет!

Продолжительность: 01:50:23
Качество видео: BDRip [WiKi]
Видеокодек: MPEG-4 AVC/H.264
Битрейт видео: ~12800 kbps
Размер кадра: 1920x800
Аудио:
#1: Русский, DTS 5.1 / 48 kHz / 1509 kbps / 16-bit [Дублированный]
#2: Русский, AC3 5.1 / 48 kHz / 640 kbps [Дублированный]
#3: Русский, AC3 5.1 / 48 kHz / 640 kbps / DN -4dB [Авторский одноголосый закадровый [Гоблин_Пучков.Д.Ю.]]
#4: Украинский, AC3 5.1 / 48 kHz / 448 kbps / DN -4dB [Профессиональный многоголосый закадровый [Студия "AAA-sound" по заказу "Caravella-DDC"]]
#5: Английский, DTS 5.1 / 48 kHz / 1509 kbps / 16-bit [Оригинал]
#6: Английский AC3 5.1 / 48 kHz / 640 kbps [Оригинал]

MediaInfo

Общее
Уникальный идентификатор                 : 226393171553148895772070210544374975008 (0xAA51BD23F4D46226AD5C838D53E50A20)
Полное имя                               : I:\BDRip 1080\Seven.Psychopaths.2012.BDRip1080p.NNM-CLUB.ru.mkv
Формат                                   : Matroska
Версия формата                           : Version 4 / Version 2
Размер файла                             : 14,0 Гбайт
Продолжительность                        : 1 ч. 50 м.
Общий поток                              : 18,1 Мбит/сек
Название фильма                          : Seven Psychopaths (2012) NNM-CLUB.ru
Дата кодирования                         : UTC 2013-02-09 08:02:04
Программа кодирования                    : mkvmerge v6.0.0 ('Coming Up For Air') built on Jan 20 2013 09:52:00
Библиотека кодирования                   : libebml v1.3.0 + libmatroska v1.4.0
Видео
Идентификатор                            : 1
Формат                                   : AVC
Формат/Информация                        : Advanced Video Codec
Профиль формата                          : [url=mailto:High@L4.1]High@L4.1[/url]
Параметр CABAC формата                   : Да
Параметр ReFrames формата                : 5 кадров
Идентификатор кодека                     : V_MPEG4/ISO/AVC
Продолжительность                        : 1 ч. 50 м.
Битрейт                                  : 12,8 Мбит/сек
Ширина                                   : 1920 пикселей
Высота                                   : 800 пикселей
Соотношение сторон                       : 2,40:1
Режим частоты кадров                     : Постоянный
Частота кадров                           : 23,976 кадра/сек
Цветовое пространство                    : YUV
Субдискретизация насыщенности            : 4:2:0
Битовая глубина                          : 8 бит
Тип развёртки                            : Прогрессивная
Бит/(Пиксели*Кадры)                      : 0.346
Размер потока                            : 9,55 Гбайт (68%)
Библиотека кодирования                   : x264 core 128 r2216 198a7ea
Настройки программы                      : cabac=1 / ref=5 / deblock=1:-3:-3 / analyse=0x3:0x113 / me=umh / subme=10 / psy=1 / psy_rd=1.00:0.00 / mixed_ref=1 / me_range=32 / chroma_me=1 / trellis=2 / 8x8dct=1 / cqm=0 / deadzone=21,11 / fast_pskip=0 / chroma_qp_offset=-4 / threads=12 / lookahead_threads=2 / sliced_threads=0 / nr=0 / decimate=0 / interlaced=0 / bluray_compat=0 / constrained_intra=0 / bframes=8 / b_pyramid=2 / b_adapt=2 / b_bias=0 / direct=3 / weightb=1 / open_gop=0 / weightp=2 / keyint=250 / keyint_min=23 / scenecut=40 / intra_refresh=0 / rc_lookahead=50 / rc=2pass / mbtree=1 / bitrate=12757 / ratetol=1.0 / qcomp=0.60 / qpmin=0 / qpmax=69 / qpstep=4 / cplxblur=20.0 / qblur=0.5 / ip_ratio=1.40 / aq=1:0.90
Язык                                     : English
Default                                  : Да
Forced                                   : Нет
Аудио #1
Идентификатор                            : 2
Формат                                   : DTS
Формат/Информация                        : Digital Theater Systems
Режим                                    : 16
Параметр Endianness формата              : Big
Идентификатор кодека                     : A_DTS
Продолжительность                        : 1 ч. 50 м.
Вид битрейта                             : Постоянный
Битрейт                                  : 1509 Кбит/сек
Каналы                                   : 6 каналов
Расположение каналов                     : Front: L C R, Side: L R, LFE
Частота                                  : 48,0 КГц
Битовая глубина                          : 16 бит
Метод сжатия                             : С потерями
Размер потока                            : 1,16 Гбайт (8%)
Заголовок                                : DTS / 5.1 / 48 kHz / 1510 kbps DUB
Язык                                     : Russian
Default                                  : Да
Forced                                   : Нет
Аудио #2
Идентификатор                            : 3
Формат                                   : AC-3
Формат/Информация                        : Audio Coding 3
Расширение режима                        : CM (complete main)
Параметр Endianness формата              : Big
Идентификатор кодека                     : A_AC3
Продолжительность                        : 1 ч. 50 м.
Вид битрейта                             : Постоянный
Битрейт                                  : 640 Кбит/сек
Каналы                                   : 6 каналов
Расположение каналов                     : Front: L C R, Side: L R, LFE
Частота                                  : 48,0 КГц
Битовая глубина                          : 16 бит
Метод сжатия                             : С потерями
Размер потока                            : 505 Мбайт (4%)
Заголовок                                : AC3 / 5.1 ch / 640 kbps /Русский дубляж BD RUS
Язык                                     : Russian
Default                                  : Нет
Forced                                   : Нет
Аудио #3
Идентификатор                            : 4
Формат                                   : AC-3
Формат/Информация                        : Audio Coding 3
Расширение режима                        : CM (complete main)
Параметр Endianness формата              : Big
Идентификатор кодека                     : A_AC3
Продолжительность                        : 1 ч. 50 м.
Вид битрейта                             : Постоянный
Битрейт                                  : 640 Кбит/сек
Каналы                                   : 6 каналов
Расположение каналов                     : Front: L C R, Side: L R, LFE
Частота                                  : 48,0 КГц
Битовая глубина                          : 16 бит
Метод сжатия                             : С потерями
Размер потока                            : 505 Мбайт (4%)
Заголовок                                : Авторский [Дмитрий Пучков "Гоблин"]
Язык                                     : Russian
Default                                  : Нет
Forced                                   : Нет
Аудио #4
Идентификатор                            : 5
Формат                                   : AC-3
Формат/Информация                        : Audio Coding 3
Расширение режима                        : CM (complete main)
Параметр Endianness формата              : Big
Идентификатор кодека                     : A_AC3
Продолжительность                        : 1 ч. 50 м.
Вид битрейта                             : Постоянный
Битрейт                                  : 448 Кбит/сек
Каналы                                   : 6 каналов
Расположение каналов                     : Front: L C R, Side: L R, LFE
Частота                                  : 48,0 КГц
Битовая глубина                          : 16 бит
Метод сжатия                             : С потерями
Размер потока                            : 354 Мбайт (2%)
Заголовок                                : Многоголосый закадровый) [Студия "AAA-sound" по заказу "Caravella-DDC"]
Язык                                     : Ukrainian
Default                                  : Нет
Forced                                   : Нет
Аудио #5
Идентификатор                            : 6
Формат                                   : DTS
Формат/Информация                        : Digital Theater Systems
Режим                                    : 16
Параметр Endianness формата              : Big
Идентификатор кодека                     : A_DTS
Продолжительность                        : 1 ч. 50 м.
Вид битрейта                             : Постоянный
Битрейт                                  : 1509 Кбит/сек
Каналы                                   : 6 каналов
Расположение каналов                     : Front: L C R, Side: L R, LFE
Частота                                  : 48,0 КГц
Битовая глубина                          : 24 бит
Метод сжатия                             : С потерями
Размер потока                            : 1,16 Гбайт (8%)
Заголовок                                : DTS / 5.1 / 48 kHz / 1510 kbps
Язык                                     : English
Default                                  : Нет
Forced                                   : Нет
Аудио #6
Идентификатор                            : 7
Формат                                   : AC-3
Формат/Информация                        : Audio Coding 3
Расширение режима                        : CM (complete main)
Параметр Endianness формата              : Big
Идентификатор кодека                     : A_AC3
Продолжительность                        : 1 ч. 50 м.
Вид битрейта                             : Постоянный
Битрейт                                  : 640 Кбит/сек
Каналы                                   : 6 каналов
Расположение каналов                     : Front: L C R, Side: L R, LFE
Частота                                  : 48,0 КГц
Битовая глубина                          : 16 бит
Метод сжатия                             : С потерями
Размер потока                            : 505 Мбайт (4%)
Заголовок                                : AC3 / 5.1 ch / 640 kbps / Английский original BD US
Язык                                     : English
Default                                  : Нет
Forced                                   : Нет
Текст #1
Идентификатор                            : 8
Формат                                   : UTF-8
Идентификатор кодека                     : S_TEXT/UTF8
Идентификатор кодека/Информация          : UTF-8 Plain Text
Заголовок                                : Full
Язык                                     : Russian
Default                                  : Нет
Forced                                   : Нет
Текст #2
Идентификатор                            : 9
Формат                                   : UTF-8
Идентификатор кодека                     : S_TEXT/UTF8
Идентификатор кодека/Информация          : UTF-8 Plain Text
Заголовок                                : Forced
Язык                                     : English
Default                                  : Нет
Forced                                   : Нет
Текст #3
Идентификатор                            : 10
Формат                                   : UTF-8
Идентификатор кодека                     : S_TEXT/UTF8
Идентификатор кодека/Информация          : UTF-8 Plain Text
Заголовок                                : Full
Язык                                     : English
Default                                  : Нет
Forced                                   : Нет
Текст #4
Идентификатор                            : 11
Формат                                   : UTF-8
Идентификатор кодека                     : S_TEXT/UTF8
Идентификатор кодека/Информация          : UTF-8 Plain Text
Заголовок                                : SDH
Язык                                     : English
Default                                  : Нет
Forced                                   : Нет
Меню
00:00:00.000                             : :Chapter 01
00:06:53.037                             : :Chapter 02
00:14:26.115                             : :Chapter 03
00:20:37.986                             : :Chapter 04
00:27:05.915                             : :Chapter 05
00:33:35.722                             : :Chapter 06
00:38:01.112                             : :Chapter 07
00:45:08.205                             : :Chapter 08
00:52:11.294                             : :Chapter 09
00:59:04.207                             : :Chapter 10
01:09:26.495                             : :Chapter 11
01:17:18.133                             : :Chapter 12
01:20:54.641                             : :Chapter 13
01:26:29.392                             : :Chapter 14
01:35:36.814                             : :Chapter 15
01:41:13.192                             : :Chapter 16

Дополнительная информация:

В сцене на кладбище на могиле, за которой прячется киллер по кличке «Бубновый Валет», видна надпись «Rourke». Микки Рурк первоначально должен был сниматься в фильме, но из-за разногласий с режиссёром фильма он был заменен на Вуди Харрельсона.

Рецензия:

Комедия абсурда. Чудесная, яркая, непредсказуемая и очень смешная. Не из-за изящного юмора, а своей нелепостью и странностью.
Напоминает фильмы Тарантино, только в отличие от него, здесь все до последнего момента происходит как будто в шутку, ты смотришь и не в силах поверить, что можно так бессовестно смеяться над серьезнейшими вещами. Оказывается, можно! И очень жаль тех людей, кто не способен расхохотаться, когда на экране взрываются чьи-то головы и на пепелище человеческих останков двое обмениваются нежнейшим поцелуем.
Особенно впечатлительным картину не рекомендовала бы, а тем, кому нравится черный юмор, кто любит кино без правил - строго обязательно к просмотру!
Скриншоты: Пожалуйста не уходите с раздачи, дайте скачать другим!!! Время раздачи: с 21:00 до 7:00

[Цитировать]

Топик был перенесен из форума Новинки кинопроката (HD Video) в форум Зарубежное кино (HD Video)
Bootch



Показать сообщения:    

Текущее время: 08-Дек 05:09

Часовой пояс: UTC + 3


Вы не можете начинать темы
Вы не можете отвечать на сообщения
Вы не можете редактировать свои сообщения
Вы не можете удалять свои сообщения
Вы не можете голосовать в опросах
Вы не можете прикреплять файлы к сообщениям
Вы не можете скачивать файлы

!ВНИМАНИЕ!
Сайт не предоставляет электронные версии произведений, а занимается лишь коллекционированием и каталогизацией ссылок, присылаемых и публикуемых на форуме нашими читателями. Если вы являетесь правообладателем какого-либо представленного материала и не желаете, чтобы ссылка на него находилась в нашем каталоге, свяжитесь с нами, и мы незамедлительно удалим ее. Файлы для обмена на трекере предоставлены пользователями сайта, и администрация не несет ответственности за их содержание. Просьба не заливать файлы, защищенные авторскими правами, а также файлы нелегального содержания!