[ Сегодня идет свободное скачивание без начисления Download ]


Статистика раздачи
Нет
 
   
 
Top  
 
 
-U.D.O. - Steelhammer: Live From Moscow--
Год выпуска: 2014 г.
Страна: Germany
Жанр: Heavy Metal
Продолжительность: 01:43:13
-Качество видео: BDRip
Контейнер: MKV
Стандарт разрешения: 1080p
Видео кодек: MPEG4 AVC
Аудио кодек: DTS
Видео: 1920 x 1080, 10,5 Мбит/сек, 25,000 кадров/сек, 0.203 bit/pic
Аудио: DTS, 1510 Кбит/сек, 6 каналов (Front: L C R, Side: L R, LFE), 48,0 КГц
Аудио: AC-3, 448 Кбит/сек, 6 каналов (Front: L C R, Side: L R, LFE), 48,0 КГц
Аудио: FLAC, 1914 Кбит/сек, 2 канала (Front: L R), 48,0 КГц
-
Концерт U.D.O. в Москве состоялся 28 сентября 2013 года в клубе “Arena Moscow”. Россия имеет особое значение для Удо Диркшнайдера (Udo Dirkschneider) и его группы U.D.O. Они были одним из первых иностранных коллективов, отправившихся на гастроли по всей необъятной территории России, и их фэны до сих пор благодарны за это музыкантам. Поэтому группа не смогла отказаться от возможности записать в Москве концертный DVD & Blu-ray, запечатлевший тур в поддержку альбома “Steelhammer”. Данный релиз станет первым концертником U.D.O. в новом составе (с участием российского гитариста Андрея Смирнова и его финского коллеги по инструменту Каспери Хейккинена (Kasperi Heikkinen)), который с легкостью произвел положительное впечатление на прессу и фэнов на недавних выступлениях. Кроме того, релиз будет примечателен уникальным сет-листом, который вобрал множество классических номеров, долгое время не исполнявшихся живьем, а также большое количество треков с успешного альбома “Steelhammer”. U.D.O. в очередной раз доказывают, что не зря считаются одной из лучших концертных групп Европы.-

Трэклист


01. Intro (01:33)
02. Steelhammer (03:22)
03. King of Mean (03:40)
04. Future Land (05:00)
05. A Cry of a Nation (05:21)
06. Trip to Nowhere (04:46)
07. They Want War (03:48)
08. Never Cross My Way (04:29)
09. Stranger (05:24)
10. Stay True (04:15)
11. In the Darkness (05:32)
12. Azrael (05:15)
13. No Limits (04:08)
14. Mean Machine (10:52)
15. Burning Heat (03:32)
16. Metal Machine (04:40)
17. Devil's Bite (05:19)
18. Go Back to Hell(04:21)
19. Timebomb (05:24)
20. Holy (05:55)
21. Metal Heart (Accept cover) (06:02)

Media Info

Общее
Уникальный идентификатор                 : 241242359566241257422556333384102066702 (0xB57D96A2523D32F4AB3A016F96903A0E)
Полное имя                               : D:\Torrent files\U.D.O.-Steelhammer-Live.From.Moscow.x264.BDRip(1080p)-HDLine.mkv
Формат                                   : Matroska
Версия формата                           : Version 2
Размер файла                             : 10,4 Гбайт
Продолжительность                        : 1 ч. 43 м.
Режим общего битрейта                    : Переменный
Общий поток                              : 14,4 Мбит/сек
Название фильма                          : U.D.O.-Steelhammer(Live.From.Moscow).x264.BDRip(1080p)-DTS.AC3.FLAC
Дата кодирования                         : UTC 2014-10-30 17:35:45
Программа кодирования                    : mkvmerge v7.3.0 ('Nouages') 64bit built on Oct 22 2014 18:53:34
Библиотека кодирования                   : libebml v1.3.0 + libmatroska v1.4.1
Обложка                                  : Yes
Attachments                              : Cover.jpg
Видео
Идентификатор                            : 1
Формат                                   : AVC
Формат/Информация                        : Advanced Video Codec
Профиль формата                          : [email protected]
Параметр CABAC формата                   : Да
Параметр ReFrames формата                : 4 кадра
Идентификатор кодека                     : V_MPEG4/ISO/AVC
Продолжительность                        : 1 ч. 43 м.
Битрейт                                  : 10,5 Мбит/сек
Ширина                                   : 1920 пикселей
Высота                                   : 1080 пикселей
Соотношение сторон                       : 16:9
Режим частоты кадров                     : Постоянный
Частота кадров                           : 25,000 кадров/сек
Цветовое пространство                    : YUV
Субдискретизация насыщенности            : 4:2:0
Битовая глубина                          : 8 бит
Тип развёртки                            : Прогрессивная
Бит/(Пиксели*Кадры)                      : 0.203
Размер потока                            : 7,57 Гбайт (73%)
Заголовок                                : U.D.O. - Steelhammer: Live From Moscow (2014)
Библиотека кодирования                   : x264 core 142 r2479kMod dd79a61
Настройки программы                      : cabac=1 / ref=4 / deblock=1:0:0 / analyse=0x3:0x133 / me=umh / subme=10 / psy=1 / fade_compensate=0.00 / psy_rd=1.00:0.00 / mixed_ref=1 / me_range=24 / chroma_me=1 / trellis=2 / 8x8dct=1 / cqm=0 / deadzone=21,11 / fast_pskip=1 / chroma_qp_offset=-2 / threads=11 / lookahead_threads=1 / sliced_threads=0 / nr=0 / decimate=1 / interlaced=0 / bluray_compat=0 / constrained_intra=0 / fgo=0 / bframes=8 / b_pyramid=2 / b_adapt=2 / b_bias=0 / direct=3 / weightb=1 / open_gop=0 / weightp=2 / keyint=250 / keyint_min=25 / scenecut=40 / intra_refresh=0 / rc_lookahead=60 / rc=2pass / mbtree=1 / bitrate=10500 / ratetol=1.0 / qcomp=0.60 / qpmin=0 / qpmax=69 / qpstep=4 / cplxblur=20.0 / qblur=0.5 / ip_ratio=1.40 / aq=1:1.00
Язык                                     : English
Default                                  : Да
Forced                                   : Нет
Аудио #1
Идентификатор                            : 2
Формат                                   : DTS
Формат/Информация                        : Digital Theater Systems
Режим                                    : 16
Параметр Endianness формата              : Big
Идентификатор кодека                     : A_DTS
Продолжительность                        : 1 ч. 42 м.
Вид битрейта                             : Постоянный
Битрейт                                  : 1510 Кбит/сек
Каналы                                   : 6 каналов
Расположение каналов                     : Front: L C R, Side: L R, LFE
Частота                                  : 48,0 КГц
Частота кадров                           : 93,750 кадра/сек (512 spf)
Битовая глубина                          : 24 бит
Метод сжатия                             : С потерями
Размер потока                            : 1,09 Гбайт (10%)
Заголовок                                : DTS 5.1 [email protected] (24-bit)
Язык                                     : English
Default                                  : Да
Forced                                   : Нет
Аудио #2
Идентификатор                            : 3
Формат                                   : AC-3
Формат/Информация                        : Audio Coding 3
Расширение режима                        : CM (complete main)
Параметр Endianness формата              : Big
Идентификатор кодека                     : A_AC3
Продолжительность                        : 1 ч. 42 м.
Вид битрейта                             : Постоянный
Битрейт                                  : 448 Кбит/сек
Каналы                                   : 6 каналов
Расположение каналов                     : Front: L C R, Side: L R, LFE
Частота                                  : 48,0 КГц
Частота кадров                           : 31,250 кадров/сек (1536 spf)
Метод сжатия                             : С потерями
Размер потока                            : 330 Мбайт (3%)
Заголовок                                : AC3 5.1 [email protected]
Язык                                     : English
Default                                  : Нет
Forced                                   : Нет
Аудио #3
Идентификатор                            : 4
Формат                                   : FLAC
Формат/Информация                        : Free Lossless Audio Codec
Идентификатор кодека                     : A_FLAC
Продолжительность                        : 1 ч. 42 м.
Вид битрейта                             : Переменный
Битрейт                                  : 1914 Кбит/сек
Каналы                                   : 2 канала
Расположение каналов                     : Front: L R
Частота                                  : 48,0 КГц
Частота кадров                           : 10,417 кадров/сек (4608 spf)
Битовая глубина                          : 24 бит
Размер потока                            : 1,38 Гбайт (13%)
Заголовок                                : FLAC 2.0 [email protected] (24-bit)
Библиотека кодирования                   : libFLAC 1.2.1 (UTC 2007-09-17)
Язык                                     : English
Default                                  : Нет
Forced                                   : Нет
Меню
00:00:00.000                             : en:01. Intro
00:01:31.519                             : en:02. Steelhammer
00:04:54.919                             : en:03. King of Mean
00:08:36.960                             : en:04. Future Land
00:13:37.280                             : en:05. A Cry of a Nation
00:18:57.920                             : en:06. Trip to Nowhere
00:23:44.760                             : en:07. They Want War
00:27:32.600                             : en:08. Never Cross My Way
00:32:02.520                             : en:09. Stranger
00:37:21.920                             : en:10. Stay True
00:41:42.600                             : en:11. In the Darkness
00:47:14.600                             : en:12. Azrael
00:52:45.239                             : en:13. No Limits
00:56:47.600                             : en:14. Mean Machine
01:07:40.439                             : en:15. Burning Heat
01:11:05.640                             : en:16. Metal Machine
01:15:53.000                             : en:17. Devil's Bite
01:21:13.200                             : en:18. Go Back to Hell
01:25:33.880                             : en:19. Timebomb
01:30:56.680                             : en:20. Holy
01:36:34.280                             : en:21. Metal Heart (Accept cover)
-

Скриншоты

-
--

[Цитировать]



Показать сообщения:    

Текущее время: 06-Дек 19:05

Часовой пояс: UTC + 3


Вы не можете начинать темы
Вы не можете отвечать на сообщения
Вы не можете редактировать свои сообщения
Вы не можете удалять свои сообщения
Вы не можете голосовать в опросах
Вы не можете прикреплять файлы к сообщениям
Вы не можете скачивать файлы

!ВНИМАНИЕ!
Сайт не предоставляет электронные версии произведений, а занимается лишь коллекционированием и каталогизацией ссылок, присылаемых и публикуемых на форуме нашими читателями. Если вы являетесь правообладателем какого-либо представленного материала и не желаете, чтобы ссылка на него находилась в нашем каталоге, свяжитесь с нами, и мы незамедлительно удалим ее. Файлы для обмена на трекере предоставлены пользователями сайта, и администрация не несет ответственности за их содержание. Просьба не заливать файлы, защищенные авторскими правами, а также файлы нелегального содержания!