[ Сегодня идет свободное скачивание без начисления Download ]


Статистика раздачи
Нет
 
   
 
Top  
 
 
-Анна Каренина / Anna Karenina (2012) [1080p] BDRip- Русское название: Анна Каренина
Оригинальное название: Anna Karenina
Год выпуска: 2012
Производство: Великобритания - Universal Pictures, Focus Features, Working Title Films
Жанр: Драма, Мелодрама
Перевод: Дублированный
Субтитры: Вшитые отключаемые
Язык субтитров: Русские, английские-Режиссер:Джо Райт / Joe Wright
Актеры: Кира Найтли, Аарон Джонсон (III), Джуд Лоу, Алисия Викандер, Келли МакДональд, Мэттью МакФадьен, Оливия Уильямс, Мишель Докери, Домналл Глисон, Эмили Уотсон, Рут Уилсон, Александра Роач, Рафаэль Персонна, Эрос Влахос, Кеннет Коллар, Холли Грэйнджер, Ширли Хендерсон, Билл Скарсгард, Люк Ньюберри, Баффи Дэвис-Описание фильма:
Встречая приехавшую из Петербурга мать, молодой блистательный офицер граф Вронский знакомится с женой влиятельного петербургского чиновника Анной Карениной. Огонь страсти вспыхивает мгновенно, но их любовь шокирует высшее общество. В мире, где правят предрассудки и стереотипы, ей придётся сделать поистине непростой выбор между семьёй и всепоглощающей страстью…
-Дата мировой премьеры: 7 сентября 2012
Дата российской премьеры: 10 января 2013, «UPI»
Дата выхода DVD релиза: 7 марта 2013, «Двадцатый Век Фокс СНГ»
-Продолжительность: 02:09:32
Качество видео: BDRip 1080p
Видеокодек: MPEG-4 AVC/H.264
Видео: H.264, битрейт видео: 17,9 Мбит/с, размер кадра: 1920x804, 23.976 fps
Аудио #1: Русский: DTS, 768 kb/s, 5.1, 48kHz, 24 bit - дублированный
Аудио #2: Украинский: MP3, 192 kb/s, 2.0, 44.1kHz - дублированный - MIC
Аудио #2: Английский: DTS, 1536 kb/s, 5.1, 48kHz, 24 bit - оригинал

Сэмпл: Скачать

MediaInfo:

Общее
Уникальный идентификатор : 243129548767631052769824740362612941060 (0xB6E90C3ED43644E1A15DA8B6745CA104)
Полное имя : D:\Video\Anna.Karenina.2012.D.BDRip.1080p.dts.Rus.Ukr.Eng.mkv
Формат : Matroska
Версия формата : Version 2
Размер файла : 18,4 Гбайт
Продолжительность : 2 ч. 9 м.
Общий поток : 20,3 Мбит/сек
Название фильма : BDRip from VarMkn
Дата кодирования : UTC 2013-02-08 13:54:06
Программа кодирования : mkvmerge v5.4.0 ('Piper') built on Mar 10 2012 13:34:39
Библиотека кодирования : libebml v1.2.3 + libmatroska v1.3.0
Видео
Идентификатор : 1
Формат : AVC
Формат/Информация : Advanced Video Codec
Профиль формата : High@L4.1
Параметр CABAC формата : Да
Параметр ReFrames формата : 5 кадров
Идентификатор кодека : V_MPEG4/ISO/AVC
Продолжительность : 2 ч. 9 м.
Битрейт : 17,9 Мбит/сек
Ширина : 1920 пикселей
Высота : 804 пикселя
Соотношение сторон : 2,40:1
Частота кадров : 23,976 кадра/сек
Цветовое пространство : YUV
Субдискретизация насыщенности : 4:2:0
Битовая глубина : 8 бит
Тип развёртки : Прогрессивная
Бит/(Пиксели*Кадры) : 0.482
Размер потока : 15,8 Гбайт (86%)
Заголовок : Anna.Karenina.2012.1080p.BluRay.DTS.x264-HDMaNiAcS
Библиотека кодирования : x264 core 129 r2245 bc13772
Настройки программы : cabac=1 / ref=5 / deblock=1:-3:-3 / analyse=0x3:0x113 / me=tesa / subme=11 / psy=1 / psy_rd=1.05:0.00 / mixed_ref=1 / me_range=24 / chroma_me=1 / trellis=2 / 8x8dct=1 / cqm=0 / deadzone=21,11 / fast_pskip=1 / chroma_qp_offset=-2 / threads=12 / lookahead_threads=2 / sliced_threads=0 / nr=0 / decimate=1 / interlaced=0 / bluray_compat=0 / constrained_intra=0 / bframes=8 / b_pyramid=2 / b_adapt=2 / b_bias=0 / direct=3 / weightb=1 / open_gop=0 / weightp=2 / keyint=240 / keyint_min=23 / scenecut=40 / intra_refresh=0 / rc=2pass / mbtree=0 / bitrate=17850 / ratetol=1.0 / qcomp=0.60 / qpmin=10 / qpmax=69 / qpstep=4 / cplxblur=20.0 / qblur=0.5 / ip_ratio=1.40 / pb_ratio=1.30 / aq=2:0.60
Язык : English
Default : Да
Forced : Да
Аудио #1
Идентификатор : 2
Формат : DTS
Формат/Информация : Digital Theater Systems
Идентификатор кодека : A_DTS
Продолжительность : 2 ч. 9 м.
Вид битрейта : Постоянный
Битрейт : 755 Кбит/сек
Каналы : 6 каналов
Расположение каналов : Front: L C R, Side: L R, LFE
Частота : 48,0 КГц
Битовая глубина : 24 бит
Метод сжатия : С потерями
Размер потока : 700 Мбайт (4%)
Заголовок : DTS 5.1 @ 768 kbps - Dub, BD CEE
Язык : Russian
Default : Да
Forced : Да
Аудио #2
Идентификатор : 3
Формат : MPEG Audio
Версия формата : Version 1
Профиль формата : Layer 3
Режим : Joint stereo
Расширение режима : MS Stereo
Идентификатор кодека : A_MPEG/L3
Идентификатор кодека/Подсказка : MP3
Продолжительность : 2 ч. 9 м.
Вид битрейта : Постоянный
Битрейт : 192 Кбит/сек
Каналы : 2 канала
Частота : 44,1 КГц
Метод сжатия : С потерями
Размер потока : 178 Мбайт (1%)
Заголовок : Ukrainian MP3 192kb - MIC
Библиотека кодирования : LAME3.98.2
Язык : Ukrainian
Default : Нет
Forced : Нет
Аудио #3
Идентификатор : 4
Формат : DTS
Формат/Информация : Digital Theater Systems
Идентификатор кодека : A_DTS
Продолжительность : 2 ч. 9 м.
Вид битрейта : Постоянный
Битрейт : 1510 Кбит/сек
Каналы : 6 каналов
Расположение каналов : Front: L C R, Side: L R, LFE
Частота : 48,0 КГц
Битовая глубина : 24 бит
Метод сжатия : С потерями
Размер потока : 1,37 Гбайт (7%)
Заголовок : DTS 5.1 @ 1536 kbps
Язык : English
Default : Нет
Forced : Нет
Текст #1
Идентификатор : 5
Формат : UTF-8
Идентификатор кодека : S_TEXT/UTF8
Идентификатор кодека/Информация : UTF-8 Plain Text
Заголовок : Russian Forced
Язык : Russian
Default : Нет
Forced : Нет
Текст #2
Идентификатор : 6
Формат : UTF-8
Идентификатор кодека : S_TEXT/UTF8
Идентификатор кодека/Информация : UTF-8 Plain Text
Заголовок : Russian Full
Язык : Russian
Default : Нет
Forced : Нет
Текст #3
Идентификатор : 7
Формат : UTF-8
Идентификатор кодека : S_TEXT/UTF8
Идентификатор кодека/Информация : UTF-8 Plain Text
Заголовок : English
Язык : English
Default : Нет
Forced : Нет

Рецензия, отзыв о фильме:

Вечная классика
Любой выход экранизации известной книги вызывает массу споров и противоречий. «Анна Каренина» в видении Джо Райта вызвала еще большее разделение мнений. Кто-то считал, что это хорошая идея, современная экранизации книги Льва Толстого. Кто-то наоборот рвал и метал, придерживаясь точки зрения, что лучшие версии были уже отсняты в СССР. Фильм вышел, и мнения зрителей так же радикально разделились на «за» и «против». Мне достаточно сложно сформировать однозначное мнение о фильме, поэтому я и выбрала нейтральный цвет рецензии.
Сюжет вечен, перенесен на экран отличен. Обстановка пуританства и «семейных ценностей напоказ». Изменять мужу или жене можно, но только незаметно-это типичная обстановка для светского Российского общества времен Толстого. Анна Каренина- молодая женщина, искренне верящая в то, что любит мужа, человека старше его. Все меняет случайная встреча с молодым и красивым офицером Вронским. Влюбляясь в него, полностью отдаваясь своим чувствам, Анна не замечает как становится позором в обществе. Женщина ставит чувства выше семьи, а общество, увы, не признает. Конец этой печальной истории назовет каждый школьник, открывавший учебник по литературе.
К сценарию претензий нет, все сделано четко, без лишних или, наоборот, не показанных книжных моментов. Джо Райт — настоящий кудесник, в том плане, что он добавляет свое, не нарушая рамки экранизации. Я осталась в восторге от режиссерского приема — быстрая смена действий и декораций, как в театре. Это, действительно, выглядело потрясающе и ново.
Еще один плюс- невероятная эмоциональность фильма. Многие сцены пробирают до мурашек, настолько удалось режиссеру передать чувства героев. О исполнителях главных ролей, кстати, так же шло немало споров. И главным камнем преткновения для киноманов и любителей оригинального произведения стала, конечно же, исполнительница главной роли- Кира Найтли. Для Райта она стала музой, ведь это уже третий совместный фильм актрисы и режиссера. Для меня Кира открывается в каждом фильме с новой стороны. Раньше я не воспринимала ее всерьез, считая очередной голливудской старлеткой. Но ее выдающаяся, не побоюсь этого слова, игра в «Искуплении», «Опасном методе» и вот в «Карениной» изменила мое мнение о игре актрисы в положительную сторону. Она играет искренне, честно, показывая всю многогранную природу этого персонажа. Женщина, которая любит. Женщина, страдающая из-за любви. Мать, мечтающая быть рядом с сыном, но понимая, что чувства полностью охватили ее. Райт умеет снимать свою музу, и здесь она предстает обычной женщиной, чья зависимость от любимого перешла все границы. Анна находится между двух огней, между двумя мужчинами, которых сыграли два отличных актеров. Джуд Лоу. Это моя вечная любовь, ни один фильм с его участием не разочаровывает меня. Каренин в его исполнении-это роль выше всяких похвал. Мужчина, пытающийся сохранить семью и статус. Он любит Анну, своей любовью, которая непонятна ей. Ни тяжелый грим, ни тяжелый взгляд не скроют истинных переживаний и боли персонажа Лоу. Молодой Аарон Тейлор-Джонсон давно перерос роль «мальчика-пипца», и роль Вронского лишь доказывает, что у него отличный актерский потенциал. Вронский притягивает с точно такой же силой, как и отталкивает. Хотелось бы еще отметить чудесную Келли Макдоналд в роли Долли. Типичный образ «Толстовской матери и жены» обыгран ею тонко и органично. Так же глаз радует игра Домнала Глисона. Этот тоже достаточно «толстовский персонаж»,здесь показаны все стороны Лёвина: любовь к Китти, желание обрести счастливую семью, проблемы и переживание за брата. Что касается Мэттью Макфейдена в роли Стивы, то его персонаж вышел весьма себе каноничным и книжным.
А теперь перейду к тому, что меня в фильме не особо устроило. Достаточно типичные ошибки для иностранцев, снимающих русские книги и фильмы о России: покажите мне где в наших городах столько снега? Действительно, вся Россия покрыта снегом, и «Во поле березка стояла» звучит с каждого угла. Неуместно смотрятся эти «колориты».
Но, в общем и целом, фильм вышел классическим. Это крепкая, хорошая экранизация, с запоминающими эмоциональными моментами, отличным актерским составом и вечными ценностями, показанными не только в книге Великого классика, но и сопровождающими нас на протяжении всей жизни.
8 из 10
Релиз группа:
Скриншоты:

Время раздачи: с 10:00 до 20:00 (GMT+2) - до 15 скачавших

[Цитировать]

Топик был перенесен из форума Новинки кинопроката (HD Video) в форум Зарубежное кино (HD Video)
Bootch



Показать сообщения:    

Текущее время: 09-Дек 14:38

Часовой пояс: UTC + 3


Вы не можете начинать темы
Вы не можете отвечать на сообщения
Вы не можете редактировать свои сообщения
Вы не можете удалять свои сообщения
Вы не можете голосовать в опросах
Вы не можете прикреплять файлы к сообщениям
Вы не можете скачивать файлы

!ВНИМАНИЕ!
Сайт не предоставляет электронные версии произведений, а занимается лишь коллекционированием и каталогизацией ссылок, присылаемых и публикуемых на форуме нашими читателями. Если вы являетесь правообладателем какого-либо представленного материала и не желаете, чтобы ссылка на него находилась в нашем каталоге, свяжитесь с нами, и мы незамедлительно удалим ее. Файлы для обмена на трекере предоставлены пользователями сайта, и администрация не несет ответственности за их содержание. Просьба не заливать файлы, защищенные авторскими правами, а также файлы нелегального содержания!