[ Сегодня идет свободное скачивание без начисления Download ]


Статистика раздачи
Нет
 
   
 
 
 
-Гипнотизер / Hypnotisoren (2012) BDRip- Русское название: Гипнотизер
Оригинальное название: The hypnotist
Год выпуска: 2012
Выпущено: Швеция / Filmpool Nord, Sonet Film, Svensk Filmindustri (SF) AB
Жанр: Триллер, Драма, Криминал-Описание фильма:
В пригороде Стокгольма в раздевалке спортивного клуба найден зверски убитый мужчина. Позже в его доме обнаруживают зарубленных с чудовищной жестокостью жену и маленькую дочь. Похоже, убийца задался целью вырезать всю семью, однако тяжело раненный сын выжил. Комиссар уголовной полиции Йона Линна узнает, что в живых остался еще один член семьи — старшая сестра мальчика. Он понимает: необходимо найти девушку до того, как это сделает убийца. Чтобы поскорее допросить единственного свидетеля, Иона Линна связывается с врачом Эриком Марией Барком и убеждает его загипнотизировать мальчика. Только так можно получить описание преступника. Эрик нарушает свое давнее обещание отказаться от занятий гипнозом. И цепочка невероятных событий начинает неумолимо разматываться…-Режиссер: Лассе Халльстрём
Продюсер: Вордже Ханссон, Бертил Олссон, Питер Поссне
Актеры: Тобиаш Зиллиакус, Микаэл Персбрандт, Лена Улин, Хелена аф Сандеберг, Оскар Петтерссон, Анна Азкарате, Йонатан Бёкман, Ян Вальдекранц, Ева Меландер, Горан Торелл-Продолжительность: 02:01:22
Перевод: Одноголосый закадровый, любительский [den904]-
Дата мировой премьеры: 28 сентября 2012-Видеокодек: MPEG-4 AVC/H.264
Битрейт видео: ~8807 kb/s
Размер кадра: 1920x816
Качество видео: BDRip
Аудио#1: Русский: AC3, 192 kb/s (2 ch) (den904)
Аудио#2: Шведский: AC3, 384 kb/s (6 ch)

MediaInfo

Общее
Уникальный идентификатор : 213119837797619749212965055413385454215 (0xA0556342A63D01319FD09287DB586287)
Полное имя : D:\Торрент раздача\The.hypnotist.2012.x264.BDRip.1080p.mkv
Формат : Matroska
Версия формата : Version 2
Размер файла : 7,96 Гбайт
Продолжительность : 2 ч. 1 м.
Режим общего битрейта : Переменный
Общий поток : 9388 Кбит/сек
Дата кодирования : UTC 2013-02-07 23:22:50
Программа кодирования : mkvmerge v4.5.0 ('Speed of Light') сборка от Feb 1 2011 02:10:32
Библиотека кодирования : libebml v1.2.0 + libmatroska v1.1.0
Видео
Идентификатор : 1
Формат : AVC
Формат/Информация : Advanced Video Codec
Профиль формата : [email protected]
Параметр CABAC формата : Да
Параметр ReFrames формата : 5 кадров
Идентификатор кодека : V_MPEG4/ISO/AVC
Продолжительность : 2 ч. 1 м.
Вид битрейта : Переменный
Битрейт : 8807 Кбит/сек
Максимальный битрейт : 40,0 Мбит/сек
Ширина : 1920 пикселей
Высота : 816 пикселей
Соотношение сторон : 2,35:1
Режим частоты кадров : Постоянный
Частота кадров : 24,000 кадра/сек
Цветовое пространство : YUV
Субдискретизация насыщенности : 4:2:0
Битовая глубина : 8 бит
Тип развёртки : Прогрессивная
Бит/(Пиксели*Кадры) : 0.234
Размер потока : 7,31 Гбайт (92%)
Заголовок : The hypnotist
Библиотека кодирования : x264 core 129 r2245 bc13772
Настройки программы : cabac=1 / ref=5 / deblock=1:0:0 / analyse=0x3:0x133 / me=umh / subme=7 / psy=1 / psy_rd=1.00:0.00 / mixed_ref=1 / me_range=16 / chroma_me=1 / trellis=1 / 8x8dct=1 / cqm=0 / deadzone=21,11 / fast_pskip=0 / chroma_qp_offset=-2 / threads=18 / lookahead_threads=3 / sliced_threads=0 / nr=0 / decimate=1 / interlaced=0 / bluray_compat=0 / constrained_intra=0 / bframes=3 / b_pyramid=2 / b_adapt=2 / b_bias=0 / direct=3 / weightb=1 / open_gop=0 / weightp=2 / keyint=250 / keyint_min=24 / scenecut=40 / intra_refresh=0 / rc_lookahead=50 / rc=2pass / mbtree=1 / bitrate=8807 / ratetol=1.0 / qcomp=0.60 / qpmin=0 / qpmax=69 / qpstep=4 / cplxblur=20.0 / qblur=0.5 / ip_ratio=1.40 / aq=1:1.0
Язык : Swedish
Default : Да
Forced : Нет
Аудио #1
Идентификатор : 2
Формат : AC-3
Формат/Информация : Audio Coding 3
Расширение режима : CM (complete main)
Параметр Endianness формата : Big
Идентификатор кодека : A_AC3
Продолжительность : 2 ч. 1 м.
Вид битрейта : Постоянный
Битрейт : 192 Кбит/сек
Каналы : 2 канала
Расположение каналов : Front: L R
Частота : 48,0 КГц
Битовая глубина : 16 бит
Метод сжатия : С потерями
Размер потока : 167 Мбайт (2%)
Заголовок : AC3, 192 Kbps (2 ch) den904
Язык : Russian
Default : Да
Forced : Нет
Аудио #2
Идентификатор : 3
Формат : AC-3
Формат/Информация : Audio Coding 3
Расширение режима : CM (complete main)
Параметр Endianness формата : Big
Идентификатор кодека : A_AC3
Продолжительность : 2 ч. 1 м.
Вид битрейта : Постоянный
Битрейт : 384 Кбит/сек
Каналы : 6 каналов
Расположение каналов : Front: L C R, Side: L R, LFE
Частота : 48,0 КГц
Битовая глубина : 16 бит
Метод сжатия : С потерями
Размер потока : 333 Мбайт (4%)
Заголовок : AC3, 384 kb/s (6 ch) Original
Язык : Swedish
Default : Нет
Forced : Нет
Скриншоты:
Время раздачи: 09:00 - 23:00 (МСК)

[Цитировать]



Показать сообщения:    

Текущее время: 06-Дек 19:07

Часовой пояс: UTC + 3


Вы не можете начинать темы
Вы не можете отвечать на сообщения
Вы не можете редактировать свои сообщения
Вы не можете удалять свои сообщения
Вы не можете голосовать в опросах
Вы не можете прикреплять файлы к сообщениям
Вы не можете скачивать файлы

!ВНИМАНИЕ!
Сайт не предоставляет электронные версии произведений, а занимается лишь коллекционированием и каталогизацией ссылок, присылаемых и публикуемых на форуме нашими читателями. Если вы являетесь правообладателем какого-либо представленного материала и не желаете, чтобы ссылка на него находилась в нашем каталоге, свяжитесь с нами, и мы незамедлительно удалим ее. Файлы для обмена на трекере предоставлены пользователями сайта, и администрация не несет ответственности за их содержание. Просьба не заливать файлы, защищенные авторскими правами, а также файлы нелегального содержания!