[ Сегодня идет свободное скачивание без начисления Download ]


Статистика раздачи
Качаю: [ 1 ]
Скачал: [ 6 ]
 
   
 
Top  
 
 
Виталий Непочатов | Продвинутый видеокурс по созданию реального андроид-приложения (2015) PCRec - Автор (режиссер): Виталий Непочатов
Жанр: Программирование
Описание:
Продвинутый видеокурс по созданию реального андроид-приложения, в результате которого вы за 12 видеоуроков создадите настоящее, работающее, полезное и функциональное приложение, затем, по желанию, загрузите его в Google Play и подключите рекламный баннер AdMob для монетизации вашего приложения.
В результате прохождения курса Вы:
1.Создадите свое приложение
2.Научитесь работать с современными инструментами из библиотеки поддержки материального дизайна:
CoordinatorLayout
RecyclerView
ToolBar
FloatingActionButton
FloatingLabels
SnackBar
3.Увидите реальные примеры работы с SharedPreferences и базами данных SQLite, списками и вкладками, Services и Notifications, и т.д.
4.Узнате, как создать аккаунт разработчика в Google Play и опубликовать приложение в маркете
5.Освоите способы зарабатывания денег на показе рекламы в вашем приложении
Продолжительность: 04:59:48
Качество видео: PCRec
Видео: AVC/H.264, 1280x720, ~649 Kbps
Аудио: AAC, 2 ch, 192 Kbps, VBR

Mediainfo:

General
Complete name : Reminder. Урок 01.mp4
Format : MPEG-4
Format profile : Base Media / Version 2
Codec ID : mp42 (isom/mp42)
File size : 111 MiB
Duration : 18mn 25s
Overall bit rate mode : Variable
Overall bit rate : 844 Kbps
Encoded date : UTC 2015-09-12 07:26:15
Tagged date : UTC 2015-09-12 07:26:15
gsst : 0
gstd : 1105223
gssd : BADC23AE9HM1443365529249672
gshh : r9---sn-n8v7lnes.c.youtube.com
Video
ID : 1
Format : AVC
Format/Info : Advanced Video Codec
Format profile : High@L3.1
Format settings, CABAC : Yes
Format settings, ReFrames : 1 frame
Format settings, GOP : M=1, N=60
Codec ID : avc1
Codec ID/Info : Advanced Video Coding
Duration : 18mn 25s
Bit rate : 649 Kbps
Maximum bit rate : 8 290 Kbps
Width : 1 280 pixels
Height : 720 pixels
Display aspect ratio : 16:9
Frame rate mode : Constant
Frame rate : 30.000 fps
Color space : YUV
Chroma subsampling : 4:2:0
Bit depth : 8 bits
Scan type : Progressive
Bits/(Pixel*Frame) : 0.023
Stream size : 85.5 MiB (77%)
Encoded date : UTC 1904-01-01 00:00:00
Tagged date : UTC 2015-09-12 07:26:34
Audio
ID : 2
Format : AAC
Format/Info : Advanced Audio Codec
Format profile : LC
Codec ID : 40
Duration : 18mn 25s
Bit rate mode : Variable
Bit rate : 192 Kbps
Maximum bit rate : 201 Kbps
Channel(s) : 2 channels
Channel positions : Front: L R
Sampling rate : 44.1 KHz
Frame rate : 43.066 fps (1024 spf)
Compression mode : Lossy
Stream size : 25.3 MiB (23%)
Title : IsoMedia File Produced by Google, 5-11-2011
Language : English
Encoded date : UTC 2015-09-12 07:26:24
Tagged date : UTC 2015-09-12 07:26:34
Скриншоты:

[Цитировать]



Показать сообщения:    

Текущее время: 09-Дек 03:06

Часовой пояс: UTC + 3


Вы не можете начинать темы
Вы не можете отвечать на сообщения
Вы не можете редактировать свои сообщения
Вы не можете удалять свои сообщения
Вы не можете голосовать в опросах
Вы не можете прикреплять файлы к сообщениям
Вы не можете скачивать файлы

!ВНИМАНИЕ!
Сайт не предоставляет электронные версии произведений, а занимается лишь коллекционированием и каталогизацией ссылок, присылаемых и публикуемых на форуме нашими читателями. Если вы являетесь правообладателем какого-либо представленного материала и не желаете, чтобы ссылка на него находилась в нашем каталоге, свяжитесь с нами, и мы незамедлительно удалим ее. Файлы для обмена на трекере предоставлены пользователями сайта, и администрация не несет ответственности за их содержание. Просьба не заливать файлы, защищенные авторскими правами, а также файлы нелегального содержания!