[ Сегодня идет свободное скачивание без начисления Download ]


Статистика раздачи
Скачал: [ 13 ]
 
   
 
Top  
 
 
Geekbrains | SEO. Оптимизация и продвижение сайтов (2016) PCRec - Автор (режиссер): Geekbrains
Преподаватель: Илья Ростокин
Жанр: SEO, Продвижение сайтов
Описание:
Курс по SEO создан специально для тех, кому интересно не просто создание, но и продвижение сайтов в сети Интернет. Для быстрого успешного освоения программы курса Вам потребуются базовые знания HTML. Начальные знания в области поисковой оптимизации необязательны. Курс дает полное подробное практическое руководство для овладения предметом на уровне профессии.
Чему Вы научитесь:
В курсе рассматривается широкий ряд интернет технологий, которые необходимы для успешного продвижения сайтов в сети Интернет — SEO (Search Engine Optimization).
Используя приемы и методики SEO-оптимизации, Вы научитесь создавать сайты, которые выйдут на первые места на поисковых машинах, за счет чего количество пользователей на Вашем сайте значительно увеличится.
Продолжительность: 23:01:00
Качество видео: PCRec
Видео: AVC/H.264, 1280х720, ~384 Kbps
Аудио: AAC, 2 ch, 64 kbps

Mediainfo:

Общее
Полное имя : D:\Программирование\SEO\1\1.mp4
Формат : MPEG-4
Профиль формата : Base Media
Идентификатор кодека : isom (isom/iso2/avc1/mp41)
Размер файла : 436 Мбайт
Продолжительность : 2 ч. 38 м.
Общий поток : 384 Кбит/сек
Программа кодирования : Lavf54.29.104
Видео
Идентификатор : 1
Формат : AVC
Формат/Информация : Advanced Video Codec
Профиль формата : High@L3.1
Параметр CABAC формата : Да
Параметр ReFrames формата : 4 кадра
Идентификатор кодека : avc1
Идентификатор кодека/Информация : Advanced Video Coding
Продолжительность : 2 ч. 38 м.
Битрейт : 313 Кбит/сек
Номинальный битрейт : 384 Кбит/сек
Ширина : 1280 пикселей
Высота : 720 пикселей
Соотношение сторон : 16:9
Режим частоты кадров : Переменный
Частота кадров : 15,000 кадров/сек
Минимальная частота кадров : 14,925 кадров/сек
Максимальная частота кадров : 15,152 кадров/сек
Цветовое пространство : YUV
Субдискретизация насыщенности : 4:2:0
Битовая глубина : 8 бит
Тип развёртки : Прогрессивная
Бит/(Пиксели*Кадры) : 0.023
Размер потока : 355 Мбайт (82%)
Библиотека кодирования : x264 core 132
Настройки программы : cabac=1 / ref=1 / deblock=1:0:0 / analyse=0x3:0x113 / me=hex / subme=2 / psy=1 / psy_rd=1.00:0.00 / mixed_ref=0 / me_range=16 / chroma_me=1 / trellis=0 / 8x8dct=1 / cqm=0 / deadzone=21,11 / fast_pskip=1 / chroma_qp_offset=0 / threads=4 / lookahead_threads=1 / sliced_threads=0 / nr=0 / decimate=1 / interlaced=0 / bluray_compat=0 / constrained_intra=0 / bframes=3 / b_pyramid=2 / b_adapt=1 / b_bias=0 / direct=1 / weightb=1 / open_gop=0 / weightp=1 / keyint=30 / keyint_min=3 / scenecut=40 / intra_refresh=0 / rc_lookahead=10 / rc=cbr / mbtree=1 / bitrate=384 / ratetol=1.0 / qcomp=0.60 / qpmin=0 / qpmax=69 / qpstep=4 / vbv_maxrate=384 / vbv_bufsize=512 / nal_hrd=none / ip_ratio=1.40 / aq=1:1.00
Аудио
Идентификатор : 2
Формат : AAC
Формат/Информация : Advanced Audio Codec
Профиль формата : LC
Идентификатор кодека : 40
Продолжительность : 2 ч. 38 м.
Вид битрейта : Постоянный
Битрейт : 64,0 Кбит/сек
Каналы : 2 канала
Расположение каналов : Front: L R
Частота : 44,1 КГц
Частота кадров : 43,066 кадра/сек (1024 spf)
Метод сжатия : С потерями
Размер потока : 72,6 Мбайт (17%)
Default : Да
Alternate group : 1

Программа курса:

Урок 1. Введение в специальность
Профессия, Общие понятия SEO и Оптимизации, веб строительства, видов продвижений, Внутренние ресурсы сайта, Структура сайта, usability, CMS и их влияние на продвижение, Контент сайта. Уникализация, оптимизация, влияние на успешность.
Урок 2. Семантическое ядро сайта
Успешное СемЯдро. Коммерческие и некоммерческие запросы. Общие принципы сбора СемЯдра. Конкуренция ключевых слов. Программы и комплексы в помощь при сборе СемЯдра. Оценка конкурентов в сети.
Урок 3. Внешние ресурсы в продвижении
Ссылочная масса, оценка сайтов доноров. Биржи ссылок, биржи статей- использование и методики. Работа с биржами ссылок и статей. Обмен ссылками-статьями с вебмастерами напрямую. Специалисты и ресурсы в этой области Каталоги Яндекс, Мейл, DMOZ в продвижении
Урок 4. Внутренние ресурсы сайта
Контент сайта. Адаптация к семантическому ядру. Оптимизация текстов Посадочные страницы ключевых слов. Перелинковка запросов и структуры сайта.
Урок 5. Контекстное продвижение сайта
Продвижение в социальных сетях и их влияние на успех продвижения Продвижение по трафику. Низкочастотное продвижение. Продвижение блогами как часть продвижения. ПР продвижение
Урок 6. Контекстное продвижение сайта
Системы контекста- разновидности, требования, специфика Правильно составление контекстных объявлений, для успеха общей программы продвижения. Правильные бюджеты на контекст и их адаптация к достигнутым успехам поискового продвижения.
Урок 7. Медийное продвижение
Баннеры, тизеры - сходства и различия. Биржи и движки систем баннерообмена и покупки трафика Оптимальные бюджеты продвижения, оценка эффективности компании, результатов
Урок 8. Системы сбора статистики и аналитики
Google Analitics, Яндекс Метрика, Liveinternet – сбор статистики. Яндекс Вебвизор, Google Analitics и другие сервисы анализа продвижения. Программы и сервисы для сбора позиций в поиске СемЯдра, трафика и иных характеристик, раскрывающих продвижение.
Скриншоты:

[Цитировать]



Показать сообщения:    

Текущее время: 07-Дек 15:33

Часовой пояс: UTC + 3


Вы не можете начинать темы
Вы не можете отвечать на сообщения
Вы не можете редактировать свои сообщения
Вы не можете удалять свои сообщения
Вы не можете голосовать в опросах
Вы не можете прикреплять файлы к сообщениям
Вы не можете скачивать файлы

!ВНИМАНИЕ!
Сайт не предоставляет электронные версии произведений, а занимается лишь коллекционированием и каталогизацией ссылок, присылаемых и публикуемых на форуме нашими читателями. Если вы являетесь правообладателем какого-либо представленного материала и не желаете, чтобы ссылка на него находилась в нашем каталоге, свяжитесь с нами, и мы незамедлительно удалим ее. Файлы для обмена на трекере предоставлены пользователями сайта, и администрация не несет ответственности за их содержание. Просьба не заливать файлы, защищенные авторскими правами, а также файлы нелегального содержания!