[ Today is free to download without increasing Download ]

DL-List and Torrent activity
Complete: [ 4 ]
wpa.at.ua | Проверь свою WI-FI сеть на устойчивость к взлому (2012) PCRec - Автор (режиссер): wpa.at.ua
Жанр: Компьютерная безопасность
Прослушав этот цикл вебинаров, Вы узнаете:
- Что такое wi-fi, в чем его удобство (и неудобство)?
- На сколько опасен (или безопасен) wi-fi?
- На сколько просто он может быть взломан?
- Как сделать wi-fi безопасным?
- Как проверить реальную устойчивость Вашей wi-fi сети к взлому?
- Какие существуют инструменты для проверки взломоустойчивости wi-fi и как пользоваться этими инструментами?
- А так же, как можно ЧЕСТНО заработать на уязвимостях wi-fi сетей? (только честные и благородные методы заработка).
Как взломать wi-fi не нарушая законы и морально-этические нормы? При этом Вам еще и заплатят!
Продолжительность: 02:31:07
Качество видео: PCRec
Видео: TechSmith, 800х600, ~168 Kbps
Аудио: MP3, 2 ch, 320 Kbps, CBR


Complete name : 02. Уязвимости Wi-Fi сетей.avi
Format : AVI
Format/Info : Audio Video Interleave
File size : 74.1 MiB
Duration : 21mn 2s
Overall bit rate : 493 Kbps
ID : 0
Format : TechSmith
Codec ID : tscc
Codec ID/Info : TechSmith Screen Capture
Duration : 21mn 2s
Bit rate : 168 Kbps
Width : 800 pixels
Height : 600 pixels
Display aspect ratio : 4:3
Frame rate : 15.000 fps
Bit depth : 8 bits
Bits/(Pixel*Frame) : 0.023
Stream size : 25.3 MiB (34%)
ID : 1
Format : MPEG Audio
Format version : Version 1
Format profile : Layer 3
Codec ID : 55
Codec ID/Hint : MP3
Duration : 21mn 2s
Bit rate mode : Constant
Bit rate : 320 Kbps
Channel(s) : 2 channels
Sampling rate : 44.1 KHz
Compression mode : Lossy
Stream size : 48.1 MiB (65%)
Alignment : Split accross interleaves
Interleave, duration : 999 ms (14.99 video frames)
Interleave, preload duration : 750 ms
Writing library : LAME3.97 (beta)

Дополнительные скриншоты:


Display posts:    

Current time is: 25-Oct 23:58

All times are UTC + 3

You cannot post new topics in this forum
You cannot reply to topics in this forum
You cannot edit your posts in this forum
You cannot delete your posts in this forum
You cannot vote in polls in this forum
You cannot attach files in this forum
You cannot download files in this forum

The site does not give electronic versions of products, and is engaged only in a collecting and cataloguing of the references sent and published at a forum by our readers. If you are the legal owner of any submitted material and do not wish that the reference to it was in our catalogue, contact us and we shall immediately remove her. Files for an exchange on tracker are given by users of a site, and the administration does not bear the responsibility for their maintenance. The request to not fill in the files protected by copyrights, and also files of the illegal maintenance!