[ Сегодня идет свободное скачивание без начисления Download ]


Статистика раздачи
Нет
 
   
 
Top  
 
 
Всплеск / Splash (1984) BDRip 1080p Информация о фильме
Название: Всплеск
Оригинальное название: Splash
Год выхода: 1984
Жанр: Фэнтези, мелодрама, комедия
Режиссёр: Рон Ховард
В ролях: Том Хэнкс, Дэрил Ханна, Юджин Леви, Джон Кэнди, Доди Гудмен, Шекки Грин, Ричард Б. Шалл, Бобби Ди Чикко, Ховард Моррис, Тони ДиБенедетто
О фильме: Любовь внезапна, неожиданна, неизбежна… Она вспыхивает, как пламя, но эту искорку нужно уметь сохранить. Особенно, когда твоя любимая так выделяется из окружающих. У нее чуткая, ранимая душа, небесной красоты глаза, густые светлые волосы, она — идеал, за одним маленьким исключением: она — русалка. Влюбленным предстоит много приключений, много трудностей и преград, и только настоящее чувство позволит им, несмотря на прихоти судьбы, остаться вместе. Ведь ласковое лазурное море скроет их от врагов.

Выпущено: США, Touchstone Pictures
Продолжительность: 01:49:47
Перевод: Дублированный (СВ-Дубль), профессиональный многоголосый (Видеосервис), авторский одноголосый (А. Гаврилов), украинский профессиональный двухголосый (Новый канал)
Оригинальная аудио-дорожка: Английская, английская с комментариями создателей фильма
Файл[
Кодек: MPEG-4 AVC
Контейнер: MKV
Качество: BDRip 1080p [Исходник: Blu-ray Remux 1080p от HDClub]
Видео: MPEG-4 AVC, 1920x1040 (1.85:1), 14 Мбит/с, 23.976 кадр/с, 0,293 bit/pixel
Аудио #1: Русский, Dolby AC3, 48000 Гц, 192 Кбит/с, 2 канала (Стерео) - DUB [СВ-Дубль]
Аудио #2: Русский, Dolby AC3, 48000 Гц, 192 Кбит/с, 2 канала (Стерео) - MVO [Видеосервис]
Аудио #3: Русский, Dolby AC3, 48000 Гц, 384 Кбит/с, 6 каналов (5.1) - AVO [А. Гаврилов]
Аудио #4: Украинский, Dolby AC3, 48000 Гц, 384 Кбит/с, 6 каналов (5.1) - DVO [Новый канал]
Аудио #5: Английский, DTS, 48000 Гц, 1510 Кбит/с, 6 каналов (5.1) - Оригинал
Аудио #6: Английский, Dolby AC3, 48000 Гц, 320 Кбит/с, 2 канала (Стерео) - Оригинал (С комментариями создателей фильма)
Субтитры: Русские, английские (полные, SDH) SRT
Навигация по главам: Есть (с названием всех глав)

MediaInfo

General
Unique ID : 177518915330857078099317544956231599890 (0x858CE643DE3769D08248A1C9E5D2C712)
Complete name : Splash.1984.BDRip.1080p.mkv
Format : Matroska
Format version : Version 4 / Version 2
File size : 13.0 GiB
Duration : 1h 49mn
Overall bit rate : 17.0 Mbps
Movie name : Всплеск / Splash (1984) BDRip (1080p) от ivandubskoj
Encoded date : UTC 2016-08-15 18:36:44
Writing application : mkvmerge v7.9.0 ('Birds') 64bit
Writing library : libebml v1.3.1 + libmatroska v1.4.2
Video
ID : 1
Format : AVC
Format/Info : Advanced Video Codec
Format profile : [email protected]
Format settings, CABAC : Yes
Format settings, ReFrames : 4 frames
Codec ID : V_MPEG4/ISO/AVC
Duration : 1h 49mn
Bit rate : 14.0 Mbps
Width : 1 920 pixels
Height : 1 040 pixels
Display aspect ratio : 1.85:1
Frame rate mode : Constant
Frame rate : 23.976 fps
Color space : YUV
Chroma subsampling : 4:2:0
Bit depth : 8 bits
Scan type : Progressive
Bits/(Pixel*Frame) : 0.293
Stream size : 10.5 GiB (80%)
Title : Splash (1984)
Writing library : x264 core 148 r2597 e86f3a1
Encoding settings : cabac=1 / ref=4 / deblock=1:-3:-3 / analyse=0x3:0x113 / me=umh / subme=11 / psy=1 / psy_rd=1.15:0.15 / mixed_ref=1 / me_range=32 / chroma_me=1 / trellis=2 / 8x8dct=1 / cqm=0 / deadzone=21,11 / fast_pskip=0 / chroma_qp_offset=-3 / threads=6 / lookahead_threads=1 / sliced_threads=0 / nr=0 / decimate=0 / interlaced=0 / bluray_compat=0 / constrained_intra=0 / bframes=10 / b_pyramid=2 / b_adapt=2 / b_bias=0 / direct=3 / weightb=1 / open_gop=0 / weightp=2 / keyint=240 / keyint_min=23 / scenecut=40 / intra_refresh=0 / rc_lookahead=40 / rc=2pass / mbtree=0 / bitrate=14014 / ratetol=1.0 / qcomp=0.60 / qpmin=0 / qpmax=69 / qpstep=4 / cplxblur=20.0 / qblur=0.5 / vbv_maxrate=50000 / vbv_bufsize=62500 / nal_hrd=none / filler=0 / ip_ratio=1.40 / pb_ratio=1.30 / aq=1:1.00
Language : English
Default : Yes
Forced : No
Audio #1
ID : 2
Format : AC-3
Format/Info : Audio Coding 3
Mode extension : CM (complete main)
Format settings, Endianness : Big
Codec ID : A_AC3
Duration : 1h 49mn
Bit rate mode : Constant
Bit rate : 192 Kbps
Channel(s) : 2 channels
Channel positions : Front: L R
Sampling rate : 48.0 KHz
Bit depth : 16 bits
Compression mode : Lossy
Stream size : 151 MiB (1%)
Title : DUB [CB-Дубль]
Language : Russian
Default : Yes
Forced : No
Audio #2
ID : 3
Format : AC-3
Format/Info : Audio Coding 3
Mode extension : CM (complete main)
Format settings, Endianness : Big
Codec ID : A_AC3
Duration : 1h 49mn
Bit rate mode : Constant
Bit rate : 192 Kbps
Channel(s) : 2 channels
Channel positions : Front: L R
Sampling rate : 48.0 KHz
Bit depth : 16 bits
Compression mode : Lossy
Stream size : 151 MiB (1%)
Title : MVO [Bидеосервис]
Language : Russian
Default : No
Forced : No
Audio #3
ID : 4
Format : AC-3
Format/Info : Audio Coding 3
Mode extension : CM (complete main)
Format settings, Endianness : Big
Codec ID : A_AC3
Duration : 1h 49mn
Bit rate mode : Constant
Bit rate : 384 Kbps
Channel(s) : 6 channels
Channel positions : Front: L C R, Side: L R, LFE
Sampling rate : 48.0 KHz
Bit depth : 16 bits
Compression mode : Lossy
Stream size : 302 MiB (2%)
Title : AVO [A. Гаврилов]
Language : Russian
Default : No
Forced : No
Audio #4
ID : 5
Format : AC-3
Format/Info : Audio Coding 3
Mode extension : CM (complete main)
Format settings, Endianness : Big
Codec ID : A_AC3
Duration : 1h 49mn
Bit rate mode : Constant
Bit rate : 384 Kbps
Channel(s) : 6 channels
Channel positions : Front: L C R, Side: L R, LFE
Sampling rate : 48.0 KHz
Bit depth : 16 bits
Compression mode : Lossy
Stream size : 302 MiB (2%)
Title : DVO [Hoвый кaнaл]
Language : Ukrainian
Default : No
Forced : No
Audio #5
ID : 6
Format : DTS
Format/Info : Digital Theater Systems
Mode : 16
Format settings, Endianness : Big
Codec ID : A_DTS
Duration : 1h 49mn
Bit rate mode : Constant
Bit rate : 1 509 Kbps
Channel(s) : 6 channels
Channel positions : Front: L C R, Side: L R, LFE
Sampling rate : 48.0 KHz
Bit depth : 24 bits
Compression mode : Lossy
Stream size : 1.16 GiB (9%)
Title : Original
Language : English
Default : No
Forced : No
Audio #6
ID : 7
Format : AC-3
Format/Info : Audio Coding 3
Mode extension : CM (complete main)
Format settings, Endianness : Big
Codec ID : A_AC3
Duration : 1h 49mn
Bit rate mode : Constant
Bit rate : 320 Kbps
Channel(s) : 2 channels
Channel positions : Front: L R
Sampling rate : 48.0 KHz
Bit depth : 16 bits
Compression mode : Lossy
Stream size : 251 MiB (2%)
Title : Original [Comments]
Language : English
Default : No
Forced : No
Text #1
ID : 8
Format : UTF-8
Codec ID : S_TEXT/UTF8
Codec ID/Info : UTF-8 Plain Text
Title : Full
Language : Russian
Default : No
Forced : No
Text #2
ID : 9
Format : UTF-8
Codec ID : S_TEXT/UTF8
Codec ID/Info : UTF-8 Plain Text
Title : Full [SDH]
Language : English
Default : No
Forced : No
Menu
00:00:00.000 : en:Opening Credits
00:01:53.863 : en:Boy Overboard
00:04:28.518 : en:Grownup Problems
00:13:31.560 : en:Desolate Drunk
00:17:08.861 : en:Mr. Fat Jack's Boat
00:23:12.474 : en:Mysterious Encounter
00:31:36.269 : en:At Bloomingdale's
00:37:01.928 : en:Home Away From Home
00:46:57.064 : en:A Distant Memory
00:54:22.300 : en:Allen In Love
00:56:41.022 : en:A Big Present
01:00:53.149 : en:Romantic Seafood Dinner
01:04:44.255 : en:Lover's Quarrel
01:10:37.316 : en:All Wet
01:18:22.739 : en:A Lucky Guy
01:22:55.595 : en:Covert Operation
01:31:21.684 : en:Reunited
01:36:57.770 : en:In Hot Pursuit
01:41:47.935 : en:A Tough Choice
01:45:08.635 : en:End Credits

Скриншоты



[Цитировать]



Показать сообщения:    

Текущее время: 05-Дек 15:35

Часовой пояс: UTC + 3


Вы не можете начинать темы
Вы не можете отвечать на сообщения
Вы не можете редактировать свои сообщения
Вы не можете удалять свои сообщения
Вы не можете голосовать в опросах
Вы не можете прикреплять файлы к сообщениям
Вы не можете скачивать файлы

!ВНИМАНИЕ!
Сайт не предоставляет электронные версии произведений, а занимается лишь коллекционированием и каталогизацией ссылок, присылаемых и публикуемых на форуме нашими читателями. Если вы являетесь правообладателем какого-либо представленного материала и не желаете, чтобы ссылка на него находилась в нашем каталоге, свяжитесь с нами, и мы незамедлительно удалим ее. Файлы для обмена на трекере предоставлены пользователями сайта, и администрация не несет ответственности за их содержание. Просьба не заливать файлы, защищенные авторскими правами, а также файлы нелегального содержания!