[ Сегодня идет свободное скачивание без начисления Download ]


Статистика раздачи
Качаю: [ 1 ]
 
   
 
Top  
 
 
Летние любовники / Summer Lovers (1982) BDRip-AVC Информация о фильме
Название: Летние любовники
Оригинальное название: Summer Lovers
Год выхода: 1982
Жанр: Драма, мелодрама, комедия, эротика
Режиссер: Рэндал Клайзер
В ролях: Питер Галлахер, Дэрил Ханна, Валери Кеннессен, Барбара Раш, Кэрол Кук, Ханс ван Тонгерен, Лидия Ленеси, Карлос Родригез Рамос, Питер Пай, Дженис Бенжамин, Виктор Т. Салант, Генри Бехар, Стивен Фазекас, Джейн Модер, Хилари Шепард, Надя Фами, Ричард Монтгомери, Энн Коулмэн, Франсуа Масу
О фильме:
Майкл и Кэти вместе с толпами других туристов приезжают на побережье Греции в летний отпуск. Майкл вскоре увлекается раскованной француженкой-археологом, а Кэти, узнав, что они стали любовниками, знакомится с этой француженкой и весьма близко с ней сходится. Все трое начинают жить одной дружной семьёй.

Страна: США
Студия: Filmways Pictures
Продолжительность: 01:38:53
Перевод: Профессиональный двухголосый, авторский (Королёв)
Файл
Кодек: x264
Качество: BDRip-AVC
Видео: MPEG-4 AVC, 3000 Кбит/с, 1024x552, 23.976 кадр/с
Аудио #1: АС3, 2 ch, 192 Кбит/с | Профессиональный двухголосый
Аудио #2: АС3, 2 ch, 384 Кбит/с | Авторский (Королёв)
Аудио #3: АС3, 2 ch, 384 Кбит/с | Английский

MediaInfo

General
Unique ID : 185781257495129672699904494738525316061 (0x8BC42B2F5F0D20659CD12EDD920EE3DD)
Complete name : Summer.Lovers.1982.BDRip-AVC.mkv
Format : Matroska
Format version : Version 4 / Version 2
File size : 2.74 GiB
Duration : 1h 38mn
Overall bit rate : 3 963 Kbps
Movie name : Summer Lovers
Director : Randal Kleiser
Encoded date : UTC 2016-08-15 15:48:38
Writing application : mkvmerge v9.2.0 ('Photograph') 32bit
Writing library : libebml v1.3.3 + libmatroska v1.4.4
Cover : Yes
Attachments : cover.jpg
Release : Koenig
Video
ID : 1
Format : AVC
Format/Info : Advanced Video Codec
Format profile : [email protected]
Format settings, CABAC : Yes
Format settings, ReFrames : 10 frames
Codec ID : V_MPEG4/ISO/AVC
Duration : 1h 38mn
Bit rate : 3 001 Kbps
Width : 1 024 pixels
Height : 552 pixels
Display aspect ratio : 1.85:1
Frame rate mode : Constant
Frame rate : 23.976 (24000/1001) fps
Color space : YUV
Chroma subsampling : 4:2:0
Bit depth : 8 bits
Scan type : Progressive
Bits/(Pixel*Frame) : 0.221
Stream size : 2.07 GiB (76%)
Writing library : x264 core 148 r2692 64f4e24
Encoding settings : cabac=1 / ref=10 / deblock=1:-3:-3 / analyse=0x3:0x133 / me=umh / subme=10 / psy=1 / psy_rd=1.10:0.00 / mixed_ref=1 / me_range=32 / chroma_me=1 / trellis=2 / 8x8dct=1 / cqm=0 / deadzone=21,11 / fast_pskip=0 / chroma_qp_offset=-2 / threads=3 / lookahead_threads=1 / sliced_threads=0 / nr=0 / decimate=1 / interlaced=0 / bluray_compat=0 / constrained_intra=0 / bframes=12 / b_pyramid=2 / b_adapt=2 / b_bias=0 / direct=3 / weightb=1 / open_gop=0 / weightp=2 / keyint=240 / keyint_min=23 / scenecut=40 / intra_refresh=0 / rc_lookahead=40 / rc=2pass / mbtree=1 / bitrate=3001 / ratetol=1.0 / qcomp=0.60 / qpmin=10 / qpmax=51 / qpstep=4 / cplxblur=20.0 / qblur=0.5 / vbv_maxrate=50000 / vbv_bufsize=62500 / nal_hrd=none / filler=0 / ip_ratio=1.40 / aq=1:1.00
Default : Yes
Forced : No
Audio #1
ID : 2
Format : AC-3
Format/Info : Audio Coding 3
Mode extension : CM (complete main)
Format settings, Endianness : Big
Codec ID : A_AC3
Duration : 1h 38mn
Bit rate mode : Constant
Bit rate : 192 Kbps
Channel(s) : 2 channels
Channel positions : Front: L R
Sampling rate : 48.0 KHz
Frame rate : 31.250 fps (1536 spf)
Compression mode : Lossy
Stream size : 136 MiB (5%)
Title : DVO
Language : Russian
Default : Yes
Forced : No
Audio #2
ID : 3
Format : AC-3
Format/Info : Audio Coding 3
Mode extension : CM (complete main)
Format settings, Endianness : Big
Codec ID : A_AC3
Duration : 1h 38mn
Bit rate mode : Constant
Bit rate : 384 Kbps
Channel(s) : 2 channels
Channel positions : Front: L R
Sampling rate : 48.0 KHz
Frame rate : 31.250 fps (1536 spf)
Compression mode : Lossy
Stream size : 272 MiB (10%)
Title : AVO - Королёв
Language : Russian
Default : No
Forced : No
Audio #3
ID : 4
Format : AC-3
Format/Info : Audio Coding 3
Mode extension : CM (complete main)
Format settings, Endianness : Big
Codec ID : A_AC3
Duration : 1h 38mn
Bit rate mode : Constant
Bit rate : 384 Kbps
Channel(s) : 2 channels
Channel positions : Front: L R
Sampling rate : 48.0 KHz
Frame rate : 31.250 fps (1536 spf)
Compression mode : Lossy
Stream size : 272 MiB (10%)
Language : English
Default : No
Forced : No
Menu
00:00:00.000 : en:Chapter 1
00:05:52.726 : en:Chapter 2
00:09:04.085 : en:Chapter 3
00:11:59.634 : en:Chapter 4
00:16:44.378 : en:Chapter 5
00:19:29.459 : en:Chapter 6
00:25:56.554 : en:Chapter 7
00:29:06.661 : en:Chapter 8
00:33:03.355 : en:Chapter 9
00:38:15.126 : en:Chapter 10
00:42:32.465 : en:Chapter 11
00:44:41.552 : en:Chapter 12
00:49:40.726 : en:Chapter 13
00:54:29.641 : en:Chapter 14
00:57:18.309 : en:Chapter 15
01:04:30.115 : en:Chapter 16
01:07:29.836 : en:Chapter 17
01:11:10.140 : en:Chapter 18
01:15:22.600 : en:Chapter 19
01:21:15.119 : en:Chapter 20
01:24:28.188 : en:Chapter 21
01:29:00.752 : en:Chapter 22
01:32:08.396 : en:Chapter 23
01:36:46.801 : en:Chapter 24
01:38:53.135 : en:Chapter 25

Скриншоты

[Цитировать]



Показать сообщения:    

Текущее время: 05-Дек 19:37

Часовой пояс: UTC + 3


Вы не можете начинать темы
Вы не можете отвечать на сообщения
Вы не можете редактировать свои сообщения
Вы не можете удалять свои сообщения
Вы не можете голосовать в опросах
Вы не можете прикреплять файлы к сообщениям
Вы не можете скачивать файлы

!ВНИМАНИЕ!
Сайт не предоставляет электронные версии произведений, а занимается лишь коллекционированием и каталогизацией ссылок, присылаемых и публикуемых на форуме нашими читателями. Если вы являетесь правообладателем какого-либо представленного материала и не желаете, чтобы ссылка на него находилась в нашем каталоге, свяжитесь с нами, и мы незамедлительно удалим ее. Файлы для обмена на трекере предоставлены пользователями сайта, и администрация не несет ответственности за их содержание. Просьба не заливать файлы, защищенные авторскими правами, а также файлы нелегального содержания!