[ Сегодня идет свободное скачивание без начисления Download ]


Статистика раздачи
Нет
 
   
 
Top  
 
 
До встречи с тобой / Me Before You (2016) HDRip Информация о фильме
Название: До встречи с тобой
Оригинальное название: Me Before You
Год выхода: 2016
Жанр: Драма
Режиссер: Теа Шэррок
В ролях: Сэм Клафлин, Эмилия Кларк, Ванесса Кирби, Эйлин Данвуди, Пабло Рэйбоулд, Гэбриэлль Дауни, Саманта Спиро, Брендан Койл
О фильме: Лу Кларк знает, сколько шагов от автобусной остановки до ее дома. Она знает, что ей очень нравится работа в кафе и что, скорее всего, она не любит своего бойфренда Патрика. Но Лу не знает, что вот-вот потеряет свою работу и что в ближайшем будущем ей понадобятся все силы, чтобы преодолеть свалившиеся на нее проблемы. Уилл Трейнор знает, что сбивший его мотоциклист отнял у него желание жить. И он точно знает, что надо сделать, чтобы положить конец всему этому. Но он не знает, что Лу скоро ворвется в его мир буйством красок. И они оба не знают, что навсегда изменят жизнь друг друга...

Страна: Великобритания
Студия: Metro-Goldwyn-Mayer (MGM), New Line Cinema
Продолжительность: 01:50:05
Перевод: Профессиональный (полное дублирование) | чистый звук
Субтитры: Нет
ПРИМЕЧАНИЕ: ПРИСУТСТВУЕТ РЕКЛАМА!
Семпл
Файл
Кодек: XviD
Качество: HDRip
Видео: 688x288 (2.39:1), 23.976 fps, XviD build 73 ~807 kbps avg, 0.17 bit/pixel
Звук: 48 kHz, MPEG Layer 3, 2 ch, ~128.00 kbps avg

MediaInfo

Общее
Полное имя : Me.Before.You.2016.HDRip.ot.Portablius.avi
Формат : AVI
Формат/Информация : Audio Video Interleave
Размер файла : 744 Мбайт
Продолжительность : 1 ч. 50 м.
Общий поток : 945 Кбит/сек
Программа кодирования : VirtualDubMod 1.5.10.3 | www.virtualdub-fr.org || (build 2550/release)
Библиотека кодирования : VirtualDubMod build 2550/release
Видео
Идентификатор : 0
Формат : MPEG-4 Visual
Профиль формата : Advanced Simple@L5
Параметр BVOP формата : 1
Параметр QPel формата : Нет
Параметр GMC формата : Без точки перехода
Параметр матрицы формата : Выборочная
Идентификатор кодека : XVID
Идентификатор кодека/Подсказка : XviD
Продолжительность : 1 ч. 50 м.
Битрейт : 808 Кбит/сек
Ширина : 688 пикселей
Высота : 288 пикселей
Соотношение сторон : 2,40:1
Частота кадров : 23,976 (23976/1000) кадра/сек
Цветовое пространство : YUV
Субдискретизация насыщенности : 4:2:0
Битовая глубина : 8 бит
Тип развёртки : Прогрессивная
Метод сжатия : С потерями
Бит/(Пиксели*Кадры) : 0.170
Размер потока : 636 Мбайт (85%)
Библиотека кодирования : XviD 73
Аудио
Идентификатор : 1
Формат : MPEG Audio
Версия формата : Version 1
Профиль формата : Layer 3
Идентификатор кодека : 55
Идентификатор кодека/Подсказка : MP3
Продолжительность : 1 ч. 50 м.
Вид битрейта : Постоянный
Битрейт : 128 Кбит/сек
Каналы : 2 канала
Частота : 48,0 КГц
Метод сжатия : С потерями
Размер потока : 101 Мбайт (14%)
Выравнивание : Соединение по промежуткам
Продолжительность промежутка : 42 мс. (1,00 видеокадр)
Время предзагрузки промежутка : 504 мс.
Библиотека кодирования : LAME3.99r
Настройки программы : -m s -V 4 -q 2 -lowpass 17 -b 128

Скриншоты

[Цитировать]



Показать сообщения:    

Текущее время: 08-Дек 01:12

Часовой пояс: UTC + 3


Вы не можете начинать темы
Вы не можете отвечать на сообщения
Вы не можете редактировать свои сообщения
Вы не можете удалять свои сообщения
Вы не можете голосовать в опросах
Вы не можете прикреплять файлы к сообщениям
Вы не можете скачивать файлы

!ВНИМАНИЕ!
Сайт не предоставляет электронные версии произведений, а занимается лишь коллекционированием и каталогизацией ссылок, присылаемых и публикуемых на форуме нашими читателями. Если вы являетесь правообладателем какого-либо представленного материала и не желаете, чтобы ссылка на него находилась в нашем каталоге, свяжитесь с нами, и мы незамедлительно удалим ее. Файлы для обмена на трекере предоставлены пользователями сайта, и администрация не несет ответственности за их содержание. Просьба не заливать файлы, защищенные авторскими правами, а также файлы нелегального содержания!