[ Сегодня идет свободное скачивание без начисления Download ]


Статистика раздачи
Качаю: [ 3 ]
Скачал: [ 7 ]
 
   
 
Top  
 
 
LoftSchool | Web-разработка для начинающих (2016) PCRec - Автор (режиссер): LoftSchool
Жанр: Вёрстка, HTML5, CSS3, JavaScript
Описание:
Если вы еще только начинаете свой путь веб-разработчика, тогда мы поможем вам получить полноценные структурированные знания, которые вы закрепите на практике, в условиях максимально приближенных к разработке.
Посмотрев курс Вы научитесь:
-Настраивать свою рабочую среду
-Анализировать макеты, и переводить из PSD в HTML
-Верстать модульно и маштабируемо
-Основам работы с возможностями HTML5 и различных сервисов для веб-разработки
-Основам JavaScript и уверенной работе с самыми востребованными частями jQuery
-Подключать и умело пользоваться плагинами jQuery
-Работать с современными, популярными фреймворками для создания интерфейсов
-Базовым навыкам работы с сервером и хостингом
-Верстке форм и работе с интерактивными элементами
Продолжительность: 02:18:37:56
Качество видео: PCRec
Видео: AVC/H.264, 1280x720, ~756 kbps
Аудио: AAC, 2 ch, 235 kbps

Mediainfo:Код:

Общее
Полное имя : D:\LoftSchool\Web-разработка для начинающих\01 - Открытие потока\01 - ОТКРЫТИЕ ПОТОКА (10.05.2016).mp4
Формат : MPEG-4
Профиль формата : Base Media / Version 2
Идентификатор кодека : mp42 (mp42/mp41/isom/avc1)
Размер файла : 1007 Мбайт
Продолжительность : 2 ч. 21 м.
Режим общего битрейта : Переменный
Общий поток : 995 Кбит/сек
Дата кодирования : UTC 2016-05-10 20:47:05
Дата пометки : UTC 2016-05-10 20:47:05
Видео
Идентификатор : 1
Формат : AVC
Формат/Информация : Advanced Video Codec
Профиль формата : [email protected]
Параметр CABAC формата : Да
Параметр ReFrames формата : 5 кадров
Параметр GOP формата : M=4, N=45
Идентификатор кодека : avc1
Идентификатор кодека/Информация : Advanced Video Coding
Продолжительность : 2 ч. 21 м.
Битрейт : 756 Кбит/сек
Ширина : 1280 пикселей
Высота : 720 пикселей
Соотношение сторон : 16:9
Режим частоты кадров : Постоянный
Частота кадров : 15,000 кадров/сек
Цветовое пространство : YUV
Субдискретизация насыщенности : 4:2:0
Битовая глубина : 8 бит
Тип развёртки : Прогрессивная
Бит/(Пиксели*Кадры) : 0.055
Размер потока : 766 Мбайт (76%)
Библиотека кодирования : x264 core 148 r10 3b70645
Настройки программы : cabac=1 / ref=5 / deblock=1:0:0 / analyse=0x3:0x113 / me=umh / subme=8 / psy=1 / psy_rd=1.00:0.00 / mixed_ref=1 / me_range=16 / chroma_me=1 / trellis=1 / 8x8dct=1 / cqm=0 / deadzone=21,11 / fast_pskip=1 / chroma_qp_offset=-2 / threads=22 / lookahead_threads=3 / sliced_threads=0 / nr=0 / decimate=1 / interlaced=0 / bluray_compat=0 / stitchable=1 / constrained_intra=0 / bframes=3 / b_pyramid=2 / b_adapt=2 / b_bias=0 / direct=3 / weightb=1 / open_gop=0 / weightp=2 / keyint=infinite / keyint_min=15 / scenecut=40 / intra_refresh=0 / rc_lookahead=50 / rc=crf / mbtree=1 / crf=20.0 / qcomp=0.60 / qpmin=5 / qpmax=69 / qpstep=4 / vbv_maxrate=2750 / vbv_bufsize=7500 / crf_max=0.0 / nal_hrd=none / filler=0 / ip_ratio=1.40 / aq=1:1.00
Дата кодирования : UTC 2016-05-10 20:47:05
Дата пометки : UTC 2016-05-10 20:47:05
Цветовой диапазон : Limited
Основные цвета : BT.709
Характеристики трансфера : BT.709
Коэффициенты матрицы : BT.709
Аудио
Идентификатор : 2
Формат : AAC
Формат/Информация : Advanced Audio Codec
Профиль формата : LC
Идентификатор кодека : 40
Продолжительность : 2 ч. 21 м.
Вид битрейта : Переменный
Битрейт : 235 Кбит/сек
Каналы : 2 канала
Расположение каналов : Front: L R
Частота : 48,0 КГц
Частота кадров : 46,875 кадров/сек (1024 spf)
Метод сжатия : С потерями
Размер потока : 238 Мбайт (24%)
Дата кодирования : UTC 2016-05-10 20:47:05
Дата пометки : UTC 2016-05-10 20:47:05
Скриншоты:

[Цитировать]



Показать сообщения:    

Текущее время: 04-Дек 09:13

Часовой пояс: UTC + 3


Вы не можете начинать темы
Вы не можете отвечать на сообщения
Вы не можете редактировать свои сообщения
Вы не можете удалять свои сообщения
Вы не можете голосовать в опросах
Вы не можете прикреплять файлы к сообщениям
Вы не можете скачивать файлы

!ВНИМАНИЕ!
Сайт не предоставляет электронные версии произведений, а занимается лишь коллекционированием и каталогизацией ссылок, присылаемых и публикуемых на форуме нашими читателями. Если вы являетесь правообладателем какого-либо представленного материала и не желаете, чтобы ссылка на него находилась в нашем каталоге, свяжитесь с нами, и мы незамедлительно удалим ее. Файлы для обмена на трекере предоставлены пользователями сайта, и администрация не несет ответственности за их содержание. Просьба не заливать файлы, защищенные авторскими правами, а также файлы нелегального содержания!