[ Сегодня идет свободное скачивание без начисления Download ]


Статистика раздачи
Качаю: [ 2 ]
Скачал: [ 2 ]
 
   
 
Top  
 
 
GoIT | GoStart (2-месячный онлайн-практикум) (2015) PCRec - Автор (режиссер): GoIT
Жанр: web, компьютер
Описание:
Сделайте 1-й шаг в карьере высокооплачиваемого IT-специалиста. Прокачайте свои базовые компьютерные навыки и определитесь с направлением в IT-сфере, которое подходит именно вам.
Зачем мы создали этот курс?
Курс GoStart - это портал в мир IT. Мы его создали для того, чтобы абсолютно любой человек мог начать свое движение в IT. По сути, это подготовительный курс для старта полноценного обучения в GoIT.
После него вы:
- получите полное представление о современных интернет-технологиях
- сможете определиться, какое направление в IT нравиться именно вам
- получить необходимую подготовку для старта обучения по выбранной специальности
Продолжительность: 41:52:27
Качество видео: PCRec
Видео: AVC/H.264, 1280x720, ~347-1012 Kbps
Аудио: AAC, 2 ch, 192 Kbps, VBR

Темы курса:

Тема 1 Введение в аппаратное и программное обеспечение (hardware and software).
Тема 2 Виртуальные машины. VMWare, VirtualBox. Установка и переустановка операционных систем
Тема 3 Операционные системы. Администрирование MS Windows
Тема 4 Операционные системы. Администрирование Linux
Тема 5 Работа с интернет браузерами с точки зрения разработчика ПО
Тема 6 Базовые знания веб-разработчика. Основы программирования на HTML, CSS
Тема 7 Основы программирования на HTML, CSS, Javascript. Работа с XML
Тема 8 Базы данных. Вводная лекция. Виды и типы баз данных, СУБД
Тема 9 Базы данных. Основы программирования на SQL
Тема 10 Сетевые технологии. Понятие клиент-сервер архитектуры
Тема 11 Сетевые технологии. Сетевые протоколы, уровни сетевых протоколов
Тема 12 Основы уязвимости интернет-приложений. XSS, SQL injection
Тема 13 Мобильные устройства для продвинутых пользователей. Мобильные операционные системы: Android; iOS
Тема 14 Карьерные сессии о выборе направления в IT

Mediainfo:

General
Complete name : C:\torrent\[GO IT] GoStart (2-месячный онлайн-практикум)\Soft Skills\1\1_занятие.MP4
Format : MPEG-4
Format profile : Base Media
Codec ID : isom (isom/iso2/avc1/mp41)
File size : 476 MiB
Duration : 1 h 38 min
Overall bit rate mode : Variable
Overall bit rate : 676 kb/s
Encoded date : UTC 2016-02-09 17:42:34
Tagged date : UTC 2016-02-09 17:42:34
Video
ID : 1
Format : AVC
Format/Info : Advanced Video Codec
Format profile : [email protected]
Format settings, CABAC : Yes
Format settings, ReFrames : 1 frame
Codec ID : avc1
Codec ID/Info : Advanced Video Coding
Duration : 1 h 38 min
Bit rate : 548 kb/s
Width : 1 280 pixels
Height : 720 pixels
Display aspect ratio : 16:9
Frame rate mode : Variable
Frame rate : 30.270 FPS
Minimum frame rate : 30.000 FPS
Maximum frame rate : 3 000.000 FPS
Color space : YUV
Chroma subsampling : 4:2:0
Bit depth : 8 bits
Scan type : Progressive
Bits/(Pixel*Frame) : 0.020
Stream size : 386 MiB (81%)
Encoded date : UTC 2016-02-09 17:42:34
Tagged date : UTC 2016-02-09 17:42:34
Audio
ID : 2
Format : AAC
Format/Info : Advanced Audio Codec
Format profile : LC
Codec ID : 40
Duration : 1 h 38 min
Bit rate mode : Variable
Bit rate : 125 kb/s
Channel(s) : 2 channels
Channel positions : Front: L R
Sampling rate : 48.0 kHz
Frame rate : 46.875 FPS (1024 spf)
Compression mode : Lossy
Stream size : 88.4 MiB (19%)
Default : Yes
Alternate group : 1
Encoded date : UTC 2016-02-09 17:42:34
Tagged date : UTC 2016-02-09 17:42:34
General
Complete name : C:\torrent\[GO IT] GoStart (2-месячный онлайн-практикум)\Soft Skills\1\Презентация к 1 занятию.pptx
Format : ZIP
File size : 2.03 MiB
General
Complete name : C:\torrent\[GO IT] GoStart (2-месячный онлайн-практикум)\Soft Skills\2\2016.02.23.MP4
Format : MPEG-4
Format profile : Base Media
Codec ID : isom (isom/iso2/avc1/mp41)
File size : 183 MiB
Duration : 52 min
Overall bit rate mode : Variable
Overall bit rate : 485 kb/s
Encoded date : UTC 2016-02-24 13:47:15
Tagged date : UTC 2016-02-24 13:47:15
Video
ID : 1
Format : AVC
Format/Info : Advanced Video Codec
Format profile : [email protected]
Format settings, CABAC : Yes
Format settings, ReFrames : 1 frame
Codec ID : avc1
Codec ID/Info : Advanced Video Coding
Duration : 52 min
Bit rate : 357 kb/s
Width : 1 280 pixels
Height : 720 pixels
Display aspect ratio : 16:9
Frame rate mode : Constant
Frame rate : 15.000 FPS
Color space : YUV
Chroma subsampling : 4:2:0
Bit depth : 8 bits
Scan type : Progressive
Bits/(Pixel*Frame) : 0.026
Stream size : 135 MiB (74%)
Title : ISO Media file produced by Google Inc.
Encoded date : UTC 2016-02-24 13:47:15
Tagged date : UTC 2016-02-24 13:47:15
Audio
ID : 2
Format : AAC
Format/Info : Advanced Audio Codec
Format profile : LC
Codec ID : 40
Duration : 52 min
Bit rate mode : Variable
Bit rate : 126 kb/s
Channel(s) : 2 channels
Channel positions : Front: L R
Sampling rate : 44.1 kHz
Frame rate : 43.066 FPS (1024 spf)
Compression mode : Lossy
Stream size : 47.3 MiB (26%)
Default : Yes
Alternate group : 1
Encoded date : UTC 2016-02-24 13:32:57
Tagged date : UTC 2016-02-24 13:32:57
General
Complete name : C:\torrent\[GO IT] GoStart (2-месячный онлайн-практикум)\Soft Skills\2\файлы\1.jpg
Format : JPEG
File size : 142 KiB
Image
Format : JPEG
Width : 1 024 pixels
Height : 737 pixels
Color space : YUV
Chroma subsampling : 4:2:0
Bit depth : 8 bits
Compression mode : Lossy
Stream size : 142 KiB (100%)
General
Complete name : C:\torrent\[GO IT] GoStart (2-месячный онлайн-практикум)\Soft Skills\2\файлы\2.jpg
Format : JPEG
File size : 66.8 KiB
Image
Format : JPEG
Width : 1 024 pixels
Height : 729 pixels
Color space : YUV
Chroma subsampling : 4:2:0
Bit depth : 8 bits
Compression mode : Lossy
Stream size : 66.8 KiB (100%)
General
Complete name : C:\torrent\[GO IT] GoStart (2-месячный онлайн-практикум)\Soft Skills\2\файлы\3.jpg
Format : JPEG
File size : 71.0 KiB
Image
Format : JPEG
Width : 999 pixels
Height : 768 pixels
Color space : YUV
Chroma subsampling : 4:2:0
Bit depth : 8 bits
Compression mode : Lossy
Stream size : 71.0 KiB (100%)
General
Complete name : C:\torrent\[GO IT] GoStart (2-месячный онлайн-практикум)\Soft Skills\3\Tablica_dlya_DZ_uroka_3.docx
Format : ZIP
File size : 12.4 KiB
General
Complete name : C:\torrent\[GO IT] GoStart (2-месячный онлайн-практикум)\Soft Skills\3\[GoStart] Вебинар Soft Skills (Lesson 3).MP4
Format : MPEG-4
Format profile : Base Media / Version 2
Codec ID : mp42 (isom/mp42)
File size : 1.35 GiB
Duration : 2 h 40 min
Overall bit rate mode : Variable
Overall bit rate : 1 206 kb/s
Encoded date : UTC 2016-03-11 09:52:32
Tagged date : UTC 2016-03-11 09:52:32
gsst : 0
gstd : 9632495
Video
ID : 1
Format : AVC
Format/Info : Advanced Video Codec
Format profile : [email protected]
Format settings, CABAC : Yes
Format settings, ReFrames : 1 frame
Codec ID : avc1
Codec ID/Info : Advanced Video Coding
Duration : 2 h 40 min
Bit rate : 1 012 kb/s
Maximum bit rate : 2 723 kb/s
Width : 1 280 pixels
Height : 720 pixels
Display aspect ratio : 16:9
Frame rate mode : Constant
Frame rate : 15.000 FPS
Color space : YUV
Chroma subsampling : 4:2:0
Bit depth : 8 bits
Scan type : Progressive
Bits/(Pixel*Frame) : 0.073
Stream size : 1.13 GiB (84%)
Tagged date : UTC 2016-03-11 09:55:11
Audio
ID : 2
Format : AAC
Format/Info : Advanced Audio Codec
Format profile : LC
Codec ID : 40
Duration : 2 h 40 min
Bit rate mode : Variable
Bit rate : 192 kb/s
Maximum bit rate : 202 kb/s
Channel(s) : 2 channels
Channel positions : Front: L R
Sampling rate : 44.1 kHz
Frame rate : 43.066 FPS (1024 spf)
Compression mode : Lossy
Stream size : 220 MiB (16%)
Title : IsoMedia File Produced by Google, 5-11-2011
Encoded date : UTC 2016-03-11 09:54:13
Tagged date : UTC 2016-03-11 09:55:11
General
Complete name : C:\torrent\[GO IT] GoStart (2-месячный онлайн-практикум)\Soft Skills\3\ДЗ Soft Skills №3.txt
File size : 627 Bytes
General
Complete name : C:\torrent\[GO IT] GoStart (2-месячный онлайн-практикум)\Soft Skills\4\Вебинар Soft Skills (Lesson 4).MP4
Format : MPEG-4
Format profile : Base Media / Version 2
Codec ID : mp42 (isom/mp42)
File size : 217 MiB
Duration : 1 h 51 min
Overall bit rate mode : Variable
Overall bit rate : 272 kb/s
Encoded date : UTC 2016-03-23 09:36:39
Tagged date : UTC 2016-03-23 09:36:39
gsst : 0
gstd : 6694241
Video
ID : 1
Format : AVC
Format/Info : Advanced Video Codec
Format profile : [email protected]
Format settings, CABAC : No
Format settings, ReFrames : 1 frame
Codec ID : avc1
Codec ID/Info : Advanced Video Coding
Duration : 1 h 51 min
Bit rate : 174 kb/s
Maximum bit rate : 563 kb/s
Width : 640 pixels
Height : 360 pixels
Display aspect ratio : 16:9
Frame rate mode : Constant
Frame rate : 15.000 FPS
Color space : YUV
Chroma subsampling : 4:2:0
Bit depth : 8 bits
Scan type : Progressive
Bits/(Pixel*Frame) : 0.050
Stream size : 139 MiB (64%)
Tagged date : UTC 2016-03-23 09:36:48
Audio
ID : 2
Format : AAC
Format/Info : Advanced Audio Codec
Format profile : LC
Codec ID : 40
Duration : 1 h 51 min
Bit rate mode : Variable
Bit rate : 96.0 kb/s
Maximum bit rate : 104 kb/s
Channel(s) : 2 channels
Channel positions : Front: L R
Sampling rate : 44.1 kHz
Frame rate : 43.066 FPS (1024 spf)
Compression mode : Lossy
Stream size : 76.6 MiB (35%)
Title : IsoMedia File Produced by Google, 5-11-2011
Encoded date : UTC 2016-03-23 09:36:44
Tagged date : UTC 2016-03-23 09:36:48
General
Complete name : C:\torrent\[GO IT] GoStart (2-месячный онлайн-практикум)\Soft Skills\4\Домашние задание к 4 уроку.txt
File size : 280 Bytes
General
Unique ID : 65392825175610104412735799271089255734 (0x31323334353637383930313233343536)
Complete name : C:\torrent\[GO IT] GoStart (2-месячный онлайн-практикум)\Soft Skills\5\Вебинар Soft Skills (Lesson 5).MKV
Format : Matroska
Format version : Version 4 / Version 2
File size : 496 MiB
Duration : 1 h 51 min
Overall bit rate : 624 kb/s
Writing application : IDMmkvlib0.1
Writing library : IDMmkvlib0.1 / IDMmkvlib0.1
HANDLER_NAME : AudioHandler
Language : und
Video
ID : 1
Format : VP9
Codec ID : V_VP9
Duration : 1 h 51 min
Width : 1 280 pixels
Height : 720 pixels
Display aspect ratio : 16:9
Frame rate mode : Constant
Frame rate : 15.000 FPS
Default : Yes
Forced : No
Audio
ID : 2
Format : Opus
Codec ID : A_OPUS
Duration : 1 h 51 min
Channel(s) : 2 channels
Channel positions : Front: L R
Sampling rate : 48.0 kHz
Bit depth : bit0
Compression mode : Lossy
Default : Yes
Forced : No
General
Unique ID : 65392825175610104412735799271089255734 (0x31323334353637383930313233343536)
Complete name : C:\torrent\[GO IT] GoStart (2-месячный онлайн-практикум)\ВЕБИНАРЫ\Oфлайн встреча 27.04.2016\Oфлайн встреча 27.04.2016.MKV
Format : Matroska
Format version : Version 4 / Version 2
File size : 495 MiB
Duration : 1 h 49 min
Overall bit rate : 630 kb/s
Writing application : IDMmkvlib0.1
Writing library : IDMmkvlib0.1 / IDMmkvlib0.1
HANDLER_NAME : AudioHandler
Language : und
Video
ID : 1
Format : VP9
Codec ID : V_VP9
Duration : 1 h 49 min
Width : 1 280 pixels
Height : 720 pixels
Display aspect ratio : 16:9
Frame rate mode : Constant
Frame rate : 25.000 FPS
Default : Yes
Forced : No
Audio
ID : 2
Format : Opus
Codec ID : A_OPUS
Duration : 1 h 49 min
Channel(s) : 1 channel
Channel positions : Front: C
Sampling rate : 48.0 kHz
Bit depth : bit0
Compression mode : Lossy
Default : Yes
Forced : No
General
Complete name : C:\torrent\[GO IT] GoStart (2-месячный онлайн-практикум)\ВЕБИНАРЫ\Oфлайн встреча 27.04.2016\Офлайн встреча 27.03.2016.m4a - Schoology.MP4
Format : MPEG-4
Format profile : Base Media
Codec ID : isom (isom/iso2/mp41)
File size : 60.7 MiB
Duration : 1 h 49 min
Overall bit rate mode : Variable
Overall bit rate : 77.3 kb/s
Writing application : Lavf55.44.100
Audio
ID : 1
Format : AAC
Format/Info : Advanced Audio Codec
Format profile : LC
Codec ID : 40
Duration : 1 h 49 min
Duration_LastFrame : -16 ms
Bit rate mode : Variable
Bit rate : 76.0 kb/s
Maximum bit rate : 96.0 kb/s
Channel(s) : 2 channels
Channel(s)_Original : 1 channel
Channel positions : Front: C
Sampling rate : 44.1 kHz
Frame rate : 43.066 FPS (1024 spf)
Compression mode : Lossy
Stream size : 59.6 MiB (98%)
Default : Yes
Alternate group : 1
General
Unique ID : 65392825175610104412735799271089255734 (0x31323334353637383930313233343536)
Complete name : C:\torrent\[GO IT] GoStart (2-месячный онлайн-практикум)\ВЕБИНАРЫ\[GoStart] Вебинар -Вопрос-Ответ- (Модуль 5, 6) - YouTube.MKV
Format : Matroska
Format version : Version 4 / Version 2
File size : 253 MiB
Duration : 1 h 19 min
Overall bit rate : 444 kb/s
Writing application : IDMmkvlib0.1
Writing library : IDMmkvlib0.1 / IDMmkvlib0.1
HANDLER_NAME : AudioHandler
Language : und
Video
ID : 1
Format : VP9
Codec ID : V_VP9
Duration : 1 h 19 min
Width : 1 280 pixels
Height : 720 pixels
Display aspect ratio : 16:9
Frame rate mode : Constant
Frame rate : 15.000 FPS
Default : Yes
Forced : No
Audio
ID : 2
Format : Opus
Codec ID : A_OPUS
Duration : 1 h 19 min
Channel(s) : 2 channels
Channel positions : Front: L R
Sampling rate : 48.0 kHz
Bit depth : bit0
Compression mode : Lossy
Default : Yes
Forced : No
Скриншоты:

[Цитировать]



Показать сообщения:    

Текущее время: 04-Дек 09:11

Часовой пояс: UTC + 3


Вы не можете начинать темы
Вы не можете отвечать на сообщения
Вы не можете редактировать свои сообщения
Вы не можете удалять свои сообщения
Вы не можете голосовать в опросах
Вы не можете прикреплять файлы к сообщениям
Вы не можете скачивать файлы

!ВНИМАНИЕ!
Сайт не предоставляет электронные версии произведений, а занимается лишь коллекционированием и каталогизацией ссылок, присылаемых и публикуемых на форуме нашими читателями. Если вы являетесь правообладателем какого-либо представленного материала и не желаете, чтобы ссылка на него находилась в нашем каталоге, свяжитесь с нами, и мы незамедлительно удалим ее. Файлы для обмена на трекере предоставлены пользователями сайта, и администрация не несет ответственности за их содержание. Просьба не заливать файлы, защищенные авторскими правами, а также файлы нелегального содержания!