[ Сегодня идет свободное скачивание без начисления Download ]


Статистика раздачи
Нет
 
   
 
Top  
 
 
-Основной инстинкт / Basic Instinct (1992) BDRip- Русское название: Основной инстинкт
Оригинальное название: Basic Instinct
Год выпуска: 1992
Производство: США, Франция
Жанр: Триллер, криминал, детектив
Перевод: Многоголосый закадровый, Одноголосый закадровый
Субтитры: Вшитые отключаемые
Язык субтитров: Русский, английскийРежиссер: Пол Верховен
Актеры: Майкл Дуглас, Шэрон Стоун, Джордж Дзундза, Джинн Трипплхорн, Денис Арднт
Описание фильма:
Детектив Ник Каррен ведет расследование по делу об извращенном убийстве на сексуальной почве. Подозрение падает на подругу убитого Кэтрин — писательницу, автора шокирующих романов, которая в своей последней книге подробно описала абсолютно аналогичное преступление.
Но обворожительная, неимоверно сексуальная писательница, обладает удивительной способностью манипулировать мужчинами, пробудив в них один из самых основных инстинктов.
Дата мировой премьеры: 20 марта 1992
Дата выхода DVD: 30 марта 2006, «CP-Digital»

Возраст +18 - Зрителям, достигшим 18 лет
Рейтинг MPAA - Лицам до 17 лет обязательно присутствие взрослого
Продолжительность: 02:08:15
Качество видео: BDRip
Видео: MPEG4_AVC/H.264, 1920х800, ~10,6 Mbit/s
Аудио 1: Русский AC3 5.1, 48 kHz, 448 kbps, 16-bit - Многоголосый закадровый
Аудио 2: Русский AC3 5.1, 48 kHz, 448 kbps, 16-bit - Одноголосый закадровый (А.Гаврилов)
Аудио 3: Английский DTS 5.1, 48 kHz, 1510 kbps, 24-bit -Оригинал

MediaInfo...

Общее
Уникальный идентификатор : 219999954402922063419356124225674683667 (0xA5827332DCA73AF2808F61F81B4C2513)
Полное имя : D:\Downloads\Basic Instinct (1992-206) [1080p] (Дилогия) BDRip\Basic Instinct 1992, BDRip 1080p,x264.mkv
Формат : Matroska
Версия формата : Version 2
Размер файла : 11,7 Гбайт
Продолжительность : 2 ч. 8 м.
Общий поток : 13,0 Мбит/сек
Дата кодирования : UTC 2011-07-03 14:25:24
Программа кодирования : mkvmerge v4.5.0 ('Speed of Light') built on Feb 1 2011 02:10:32
Библиотека кодирования : libebml v1.2.0 + libmatroska v1.1.0
Attachment : Yes
Видео
Идентификатор : 1
Формат : AVC
Формат/Информация : Advanced Video Codec
Профиль формата : High@L4.1
Параметр CABAC формата : Да
Параметр ReFrames формата : 5 кадров
Идентификатор кодека : V_MPEG4/ISO/AVC
Продолжительность : 2 ч. 8 м.
Битрейт : 10,6 Мбит/сек
Ширина : 1920 пикселей
Высота : 820 пикселей
Соотношение сторон : 2,35:1
Режим частоты кадров : Постоянный
Частота кадров : 23,976 кадра/сек
Цветовое пространство : YUV
Субдискретизация насыщенности : 4:2:0
Битовая глубина : 8 бит
Тип развёртки : Прогрессивная
Бит/(Пиксели*Кадры) : 0.281
Размер потока : 9,27 Гбайт (80%)
Заголовок : Basic.Instinct.1992.1080p.BluRay.DTS.x264-CtrlHD
Библиотека кодирования : x264 core 66 r1114M a933a3e
Настройки программы : cabac=1 / ref=5 / deblock=1:-1:-1 / analyse=0x3:0x113 / me=esa / subme=9 / psy_rd=1.4:0.2 / mixed_ref=0 / me_range=16 / chroma_me=1 / trellis=2 / 8x8dct=1 / cqm=0 / deadzone=21,11 / chroma_qp_offset=-3 / threads=6 / nr=0 / decimate=0 / mbaff=0 / bframes=4 / b_pyramid=0 / b_adapt=2 / b_bias=0 / direct=1 / wpredb=1 / keyint=250 / keyint_min=25 / scenecut=40(pre) / rc=2pass / bitrate=10600 / ratetol=1.0 / qcomp=0.60 / qpmin=10 / qpmax=51 / qpstep=4 / cplxblur=20.0 / qblur=0.5 / ip_ratio=1.40 / pb_ratio=1.30 / aq=1:0.80
Язык : English
Default : Да
Forced : Нет
Аудио #1
Идентификатор : 2
Формат : AC-3
Формат/Информация : Audio Coding 3
Расширение режима : CM (complete main)
Параметр Endianness формата : Big
Идентификатор кодека : A_AC3
Продолжительность : 2 ч. 8 м.
Вид битрейта : Постоянный
Битрейт : 448 Кбит/сек
Каналы : 6 каналов
Расположение каналов : Front: L C R, Side: L R, LFE
Частота : 48,0 КГц
Битовая глубина : 16 бит
Метод сжатия : С потерями
Размер потока : 411 Мбайт (3%)
Заголовок : MVO
Язык : Russian
Default : Да
Forced : Нет
Аудио #2
Идентификатор : 3
Формат : AC-3
Формат/Информация : Audio Coding 3
Расширение режима : CM (complete main)
Параметр Endianness формата : Big
Идентификатор кодека : A_AC3
Продолжительность : 2 ч. 8 м.
Вид битрейта : Постоянный
Битрейт : 448 Кбит/сек
Каналы : 6 каналов
Расположение каналов : Front: L C R, Side: L R, LFE
Частота : 48,0 КГц
Битовая глубина : 16 бит
Метод сжатия : С потерями
Размер потока : 411 Мбайт (3%)
Заголовок : AVO (Gavrilov)
Язык : Russian
Default : Нет
Forced : Нет
Аудио #3
Идентификатор : 4
Формат : DTS
Формат/Информация : Digital Theater Systems
Режим : 16
Параметр Endianness формата : Big
Идентификатор кодека : A_DTS
Продолжительность : 2 ч. 8 м.
Вид битрейта : Постоянный
Битрейт : 1510 Кбит/сек
Каналы : 6 каналов
Расположение каналов : Front: L C R, Side: L R, LFE
Частота : 48,0 КГц
Битовая глубина : 24 бит
Метод сжатия : С потерями
Размер потока : 1,35 Гбайт (12%)
Заголовок : Original
Язык : English
Default : Нет
Forced : Нет
Текст #1
Идентификатор : 5
Формат : UTF-8
Идентификатор кодека : S_TEXT/UTF8
Идентификатор кодека/Информация : UTF-8 Plain Text
Язык : Russian
Default : Нет
Forced : Нет
Текст #2
Идентификатор : 6
Формат : UTF-8
Идентификатор кодека : S_TEXT/UTF8
Идентификатор кодека/Информация : UTF-8 Plain Text
Язык : English
Default : Нет
Forced : Нет
Меню
00:00:00.000 : en:Sex Crimes
00:07:20.857 : en:An Amateur
00:15:36.810 : en:Written Alibi
00:21:01.009 : en:Nothing to Hide
00:29:34.773 : en:Innocent Test
00:35:33.005 : en:Internal Affairs
00:40:29.176 : en:Reckless Pursuit
00:46:48.138 : en:Rough Edges
01:02:07.515 : en:Playing Games
01:11:34.415 : en:Pretty Good Beginning
01:20:44.881 : en:Deadly Chase
01:28:39.772 : en:Mind Manipulation
01:34:23.074 : en:Personal Files
01:41:37.299 : en:Researching Records
01:50:21.448 : en:Killer Story
01:58:32.605 : en:Happily Ever After
02:03:22.205 : en:End Credits
Скриншоты:


-Основной инстинкт 2: Жажда риска / Basic Instinct 2 (2006) BDRip- Русское название: Основной инстинкт 2: Жажда риска
Оригинальное название: Basic Instinct 2
Год выпуска: 2006
Производство: Германия, Великобритания, США, Испания
Жанр: Триллер, криминал, детектив
Перевод: Дублированный
Субтитры: Вшитые отключаемые
Язык субтитров: РусскийРежиссер: Майкл Кэтон-Джоунс
Актеры: Шэрон Стоун, Дэвид Морисси, Шарлотта Рэмплинг, Дэвид Тьюлис, Хью Дэнси, Стэн Коллимор, Нил Мэскелл, Жан Чаппель, Теренс Харви, Эллен Томас, Марк Сэнгстер, Тим Беррингтон, Индира Варма, Хиткот Уильямс, Флора Монтгомери, Ката Добо, Айэйн Робертсон.
Описание фильма:
На писательницу Кэтрин Трэммел вновь падает подозрение в причастности к преступлению. Скотланд-Ярд отряжает обращается к доктору Майклу Глассу за помощью в профессиональном заключении о состоянии психического здоровья Кэтрин. Но Гласс, как когда-то детектив Каррен, попадает под чары роковой женщины.
Дата мировой премьеры: 21 марта 2006
Дата российской премьеры: 30 марта 2006, «Парадиз»
Дата выхода DVD: 14 декабря 2006, «CP-Digital»

Возраст +18 - Зрителям, достигшим 18 лет
Рейтинг MPAA - Лицам до 17 лет обязательно присутствие взрослого
Продолжительность: 01:50:00
Качество видео: BDRip
Видео: MPEG4_AVC/H.264, 1920х800, ~9250 kbps
Аудио 1: Русский AC3 5.1, 48 kHz, 448 kbps, 16-bit - Дублированный
Аудио 2: Английский AC3 5.1, 48 kHz, 640 kbps, 16-bit -Оригинал
Общее
Уникальный идентификатор : 188504585589788065003124514606272012134 (0x8DD0A9A06D3F8675883F300A04FCDF66)
Полное имя : D:\Downloads\Basic Instinct (1992-206) [1080p] (Дилогия) BDRip\Basic Instinct 2 2006 BDRip.1080p.x264.mkv
Формат : Matroska
Версия формата : Version 1
Размер файла : 7,95 Гбайт
Продолжительность : 1 ч. 50 м.
Общий поток : 10,3 Мбит/сек
Дата кодирования : UTC 2008-07-09 21:28:48
Программа кодирования : mkvmerge v2.2.0 ('Turn It On Again') built on May 15 2008 19:09:07
Библиотека кодирования : libebml v0.7.7 + libmatroska v0.8.1
Видео
Идентификатор : 1
Формат : AVC
Формат/Информация : Advanced Video Codec
Профиль формата : High@L4.1
Параметр CABAC формата : Да
Параметр ReFrames формата : 5 кадров
Идентификатор кодека : V_MPEG4/ISO/AVC
Продолжительность : 1 ч. 50 м.
Битрейт : 9250 Кбит/сек
Ширина : 1920 пикселей
Высота : 800 пикселей
Соотношение сторон : 2,40:1
Режим частоты кадров : Постоянный
Частота кадров : 23,976 кадра/сек
Цветовое пространство : YUV
Субдискретизация насыщенности : 4:2:0
Битовая глубина : 8 бит
Тип развёртки : Прогрессивная
Бит/(Пиксели*Кадры) : 0.251
Размер потока : 6,95 Гбайт (87%)
Заголовок : Dasic Instinct 2
Библиотека кодирования : x264 core 60 r899M f8428ed
Настройки программы : cabac=1 / ref=5 / deblock=1:-3:-3 / analyse=0x3:0x113 / me=umh / subme=7 / rdcmp=psy / brdo=1 / mixed_ref=1 / me_range=32 / chroma_me=1 / trellis=0 / 8x8dct=1 / cqm=0 / deadzone=8,2 / chroma_qp_offset=0 / threads=3 / nr=0 / decimate=0 / mbaff=0 / bframes=3 / b_pyramid=1 / b_adapt=1 / b_bias=0 / direct=3 / wpredb=1 / bime=1 / keyint=480 / keyint_min=24 / scenecut=40(pre) / rc=2pass / bitrate=9250 / ratetol=2.0 / rceq='blurCplx^(1-qComp)' / qcomp=1.00 / qpmin=10 / qpmax=51 / qpstep=4 / cplxblur=20.0 / qblur=0.5 / vbv_maxrate=50000 / vbv_bufsize=14000 / ip_ratio=1.40 / pb_ratio=1.30 / aq=2:1.00
Язык : Russian
Default : Да
Forced : Нет
Аудио #1
Идентификатор : 2
Формат : AC-3
Формат/Информация : Audio Coding 3
Расширение режима : CM (complete main)
Параметр Endianness формата : Big
Идентификатор кодека : A_AC3
Продолжительность : 1 ч. 50 м.
Вид битрейта : Постоянный
Битрейт : 448 Кбит/сек
Каналы : 6 каналов
Расположение каналов : Front: L C R, Side: L R, LFE
Частота : 48,0 КГц
Битовая глубина : 16 бит
Метод сжатия : С потерями
Размер потока : 352 Мбайт (4%)
Заголовок : Dasic Instinct 2
Язык : Russian
Default : Да
Forced : Нет
Аудио #2
Идентификатор : 3
Формат : AC-3
Формат/Информация : Audio Coding 3
Расширение режима : CM (complete main)
Параметр Endianness формата : Big
Идентификатор кодека : A_AC3
Продолжительность : 1 ч. 50 м.
Вид битрейта : Постоянный
Битрейт : 640 Кбит/сек
Каналы : 6 каналов
Расположение каналов : Front: L C R, Side: L R, LFE
Частота : 48,0 КГц
Битовая глубина : 16 бит
Метод сжатия : С потерями
Размер потока : 504 Мбайт (6%)
Заголовок : Dasic Instinct 2
Язык : English
Default : Нет
Forced : Нет
Текст
Идентификатор : 4
Формат : UTF-8
Идентификатор кодека : S_TEXT/UTF8
Идентификатор кодека/Информация : UTF-8 Plain Text
Заголовок : Dasic Instinct 2
Язык : Russian
Default : Да
Forced : Нет
Перевод: Многоголосый закадровый, Одноголосый закадровый, Дублированный
Язык субтитров: Русский, английский
Режиссер: Пол Верховен, Майкл Кэтон-Джоунс
Актеры: Майкл Дуглас, Шэрон Стоун, Джордж Дзундза, Джинн Трипплхорн, Дэвид Морисси, Шарлотта Рэмплинг, Дэвид Тьюлис, Хью Дэнси, Стэн Коллимор, Нил Мэскелл
Описание фильма:
Кэтрин Трамелл — автор детективных романов, наследница огромного состояния и просто очень красивая женщина. Только убийства в ее книгах имеют обыкновение повторяться в реальной жизни.
Продолжительность: 02:08:15 + 01:50:00
Скриншоты:


Время раздачи: С 9:00 до 23:00 МСК (до 5 скачавших)

[Цитировать]



Показать сообщения:    

Текущее время: 10-Дек 08:03

Часовой пояс: UTC + 3


Вы не можете начинать темы
Вы не можете отвечать на сообщения
Вы не можете редактировать свои сообщения
Вы не можете удалять свои сообщения
Вы не можете голосовать в опросах
Вы не можете прикреплять файлы к сообщениям
Вы не можете скачивать файлы

!ВНИМАНИЕ!
Сайт не предоставляет электронные версии произведений, а занимается лишь коллекционированием и каталогизацией ссылок, присылаемых и публикуемых на форуме нашими читателями. Если вы являетесь правообладателем какого-либо представленного материала и не желаете, чтобы ссылка на него находилась в нашем каталоге, свяжитесь с нами, и мы незамедлительно удалим ее. Файлы для обмена на трекере предоставлены пользователями сайта, и администрация не несет ответственности за их содержание. Просьба не заливать файлы, защищенные авторскими правами, а также файлы нелегального содержания!