[ Сегодня идет свободное скачивание без начисления Download ]


Статистика раздачи
Нет
 
   
 
Top  
 
 
Соседи. На тропе войны 2 / Neighbors 2: Sorority Rising (2016) WEB-DL 1080p Информация о фильме
Название: Соседи. На тропе войны 2
Оригинальное название: Neighbors 2: Sorority Rising
Год выхода: 2016
Жанр: комедия
Режиссер: Николас Столлер
В ролях: Сет Роген, Зак Эфрон, Роуз Бирн, Хлоя Грейс Морец, Айк Баринхолц, Кирси Клемонс, Дэйв Франко, Джеррод
Кармайкл, Кристофер Минц-Плассе, Бини Фелдштейн

О фильме: На этот раз в дом по соседству с Маком и Келли въезжает университетский женский клуб. Чтобы разобраться с новыми соседями, которые не дают им покоя, Мак и Келли решают обратиться за помощью к их бывшему врагу — Тедди Сандерсу.

Выпущено: США
Продолжительность: 01:32:44
Озвучивание: Дублированное [iTunes]
Файл
Формат: MKV
Качество: WEB-DL 1080p
Видео: MPEG-4 AVC, 4486 kb/s, 1916x794
Аудио: Russian / English: AC3, 384 kb/s (6 ch)

MI

Format : Matroska
Format version : Version 4 / Version 2
File size : 3.40 GiB
Duration : 1 h 32 min
Overall bit rate : 5 253 kb/s
Movie name : NEIGHBORS_2_WEB_DL_1080p-BLUEBIRD
Encoded date : UTC 2016-08-17 18:58:16
Writing application : mkvmerge v7.1.0 ('Good Love') 64bit built on Jul 27 2014 13:06:55
Writing library : libebml v1.3.0 + libmatroska v1.4.1
Video
ID : 1
Format : AVC
Format/Info : Advanced Video Codec
Format profile : High@L4
Format settings, CABAC : Yes
Format settings, ReFrames : 5 frames
Codec ID : V_MPEG4/ISO/AVC
Duration : 1 h 32 min
Bit rate : 4 486 kb/s
Width : 1 916 pixels
Height : 794 pixels
Display aspect ratio : 2.40:1
Frame rate mode : Constant
Frame rate : 23.976 (23976/1000) FPS
Color space : YUV
Chroma subsampling : 4:2:0
Bit depth : 8 bits
Scan type : Progressive
Bits/(Pixel*Frame) : 0.123
Stream size : 2.91 GiB (85%)
Title : NEIGHBORS_2_WEB_DL_1080p-BLUEBIRD
Language : English
Default : Yes
Forced : No
Color range : Limited
Color primaries : BT.709
Transfer characteristics : BT.709
Matrix coefficients : BT.709
Audio #1
ID : 2
Format : AC-3
Format/Info : Audio Coding 3
Mode extension : CM (complete main)
Format settings, Endianness : Big
Codec ID : A_AC3
Duration : 1 h 32 min
Bit rate mode : Constant
Bit rate : 384 kb/s
Channel(s) : 6 channels
Channel positions : Front: L C R, Side: L R, LFE
Sampling rate : 48.0 kHz
Frame rate : 31.250 FPS (1536 spf)
Compression mode : Lossy
Stream size : 254 MiB (7%)
Title : [DUB] DD 5.1 @ 384 kbps
Language : Russian
Default : No
Forced : No
Audio #2
ID : 3
Format : AC-3
Format/Info : Audio Coding 3
Mode extension : CM (complete main)
Format settings, Endianness : Big
Codec ID : A_AC3
Duration : 1 h 32 min
Bit rate mode : Constant
Bit rate : 384 kb/s
Channel(s) : 6 channels
Channel positions : Front: L C R, Side: L R, LFE
Sampling rate : 48.0 kHz
Frame rate : 31.250 FPS (1536 spf)
Compression mode : Lossy
Stream size : 254 MiB (7%)
Title : [ORIGINAL] DD 5.1 @ 384 kbps
Language : English
Default : No
Forced : No
Menu
00:00:00.000 : en:1
00:06:32.000 : en:2
00:09:52.000 : en:3
00:13:07.000 : en:4
00:17:39.000 : en:5
00:22:15.000 : en:6
00:27:37.000 : en:7
00:31:58.000 : en:8
00:38:37.000 : en:9
00:44:46.000 : en:10
00:50:44.000 : en:11
00:54:34.000 : en:12
01:00:56.000 : en:13
01:04:16.000 : en:14
01:08:28.000 : en:15
01:12:56.000 : en:16
01:16:36.000 : en:17
01:20:47.000 : en:18
01:23:21.000 : en:19
01:26:05.000 : en:20

Скриншоты

[Цитировать]



Показать сообщения:    

Текущее время: 09-Дек 10:47

Часовой пояс: UTC + 3


Вы не можете начинать темы
Вы не можете отвечать на сообщения
Вы не можете редактировать свои сообщения
Вы не можете удалять свои сообщения
Вы не можете голосовать в опросах
Вы не можете прикреплять файлы к сообщениям
Вы не можете скачивать файлы

!ВНИМАНИЕ!
Сайт не предоставляет электронные версии произведений, а занимается лишь коллекционированием и каталогизацией ссылок, присылаемых и публикуемых на форуме нашими читателями. Если вы являетесь правообладателем какого-либо представленного материала и не желаете, чтобы ссылка на него находилась в нашем каталоге, свяжитесь с нами, и мы незамедлительно удалим ее. Файлы для обмена на трекере предоставлены пользователями сайта, и администрация не несет ответственности за их содержание. Просьба не заливать файлы, защищенные авторскими правами, а также файлы нелегального содержания!