[ Today is free to download without increasing Download ]

DL-List and Torrent activity
Финансовый монстр / Money Monster (2016) Информация о фильме
Название: Финансовый монстр
Оригинальное название: Money Monster
Год выхода: 2016
Жанр: Триллер, драма, криминал
Режиссер: Джоди Фостер
В ролях: Джордж Клуни, Джулия Робертс, Джек О`Коннелл, Доминик Уэст, Катрина Балф, Джанкарло Эспозито, Кристофер Денэм, Ленни Венито, Кристофер Бауэр, Дэннис Буцикарис
О фильме:
Во время трансляции рейтингового реалити-шоу «Финансовый монстр» в студию врывается неизвестный и берет ведущего в заложники. Несмотря на чрезвычайную ситуацию, программа не прерывается – ведь шоу должно продолжаться! Постепенно то, что начиналось как мрачная драма, превращается в самый успешный и скандальный выпуск реалити-шоу за всю его историю.

Страна: США
Студия: Allegiance Theater, LStar Capital, Smoke House, TriStar Pictures
Продолжительность: 01:38:07
Перевод: Профессиональный (полное дублирование) | iTunes
Кодек: XviD
Качество: BDRip
Видео: 720x304 (2.35:1), 23.976 fps, XviD Build 73, 1661 kbps avg, 0.317 bit/pixel
Аудио: 48.0 kHz, AC3 Dolby Digital, 5/1 (L C R, Side: L R, LFE) ch, 384 kbps


Complete name : Fin.Monstr.2016.XviD.1.45Gb.BDRip.by.GeneralFilm.avi
Format : AVI
Format/Info : Audio Video Interleave
File size : 1.42 GiB
Duration : 1h 38mn
Overall bit rate : 2 054 Kbps
Writing application : VirtualDubMod | www.virtualdub-fr.org || (build 2550/release)
Writing library : VirtualDubMod build 2550/release
ID : 0
Format : MPEG-4 Visual
Format profile : Advanced Simple@L5
Format settings, BVOP : 1
Format settings, QPel : No
Format settings, GMC : No warppoints
Format settings, Matrix : Custom
Codec ID : XVID
Codec ID/Hint : XviD
Duration : 1h 38mn
Bit rate : 1 661 Kbps
Width : 720 pixels
Height : 304 pixels
Display aspect ratio : 2.35:1
Frame rate : 23.976 (23976/1000) fps
Color space : YUV
Chroma subsampling : 4:2:0
Bit depth : 8 bits
Scan type : Progressive
Compression mode : Lossy
Bits/(Pixel*Frame) : 0.317
Stream size : 1.14 GiB (81%)
Writing library : XviD 73
ID : 1
Format : AC-3
Format/Info : Audio Coding 3
Mode extension : CM (complete main)
Format settings, Endianness : Big
Codec ID : 2000
Duration : 1h 38mn
Bit rate mode : Constant
Bit rate : 384 Kbps
Channel(s) : 6 channels
Channel positions : Front: L C R, Side: L R, LFE
Sampling rate : 48.0 KHz
Frame rate : 31.250 fps (1536 spf)
Compression mode : Lossy
Delay relative to video : 960ms
Stream size : 271 MiB (19%)
Alignment : Split accross interleaves
Interleave, duration : 42 ms (1.00 video frame)
Interleave, preload duratio : 500 ms



Display posts:    

Current time is: 23-Oct 09:13

All times are UTC + 3

You cannot post new topics in this forum
You cannot reply to topics in this forum
You cannot edit your posts in this forum
You cannot delete your posts in this forum
You cannot vote in polls in this forum
You cannot attach files in this forum
You cannot download files in this forum

The site does not give electronic versions of products, and is engaged only in a collecting and cataloguing of the references sent and published at a forum by our readers. If you are the legal owner of any submitted material and do not wish that the reference to it was in our catalogue, contact us and we shall immediately remove her. Files for an exchange on tracker are given by users of a site, and the administration does not bear the responsibility for their maintenance. The request to not fill in the files protected by copyrights, and also files of the illegal maintenance!