[ Сегодня идет свободное скачивание без начисления Download ]


Статистика раздачи
Нет
 
   
 
Top  
 
 
Хлеб, золото, наган (1980) Информация о фильмеОригинальное название: Хлеб, золото, наганГод выхода: 1980Жанр: БоевикРежиссер: Самвел ГаспаровВ ролях: Владимир Борисов, Ольга Гаспарова, Юрий Григорьев, Олег Корчиков, Эдуард Марцевич, Элгуджа Бурдули, Игорь Класс, Самвел ГаспаровО фильме:Гражданская война. Кругом голод, разруха, красные, белые, бандиты и нищие. Воспитательница детского дома везет хлеб голодающим детям, ее попутчики - раненый чекист Горбач и матрос Саша Андронов. К ним присоединится начальник вокзала Зайцев с тремя слитками золота для Наркомфина. Но хлеб и золото доставит в Москву Горбач. В живых останется только он... Страна: СССР, Киностудия Им. М. ГорькогоПродолжительность: 01:03:23Язык: РусскийФайлКачество: DVDRip (AVC)Видео: MPEG-4 AVC, 2710 Кбит/с, 700x456@996x456Аудио: Русский, английский (AC3, 6 ch, 448 Кбит/с)

MI

GeneralUnique ID : 177883858230386088936251550786706888553 (0x85D32F56D862B2D49FAD02A9D3425769)Complete name : E:Breadgoldnagan.1980.DVDRip.AVC.ExKinoRay.mkvFormat : MatroskaFormat version : Version 2File size : 1.60 GiBDuration : 1 h 3 minOverall bit rate : 3 608 kb/sMovie name : Bread, gold, gun 1980 from ExKinoRayEncoded date : UTC 2016-08-17 23:33:08Writing application : mkvmerge v7.6.0 ('Garden of Dreams') 32bit built on Feb 11 2015 00:18:47Writing library : libebml v1.3.1 + libmatroska v1.4.2VideoID : 1Format : AVCFormat/Info : Advanced Video CodecFormat profile : High@L4.1Format settings, CABAC : YesFormat settings, ReFrames : 12 framesCodec ID : V_MPEG4/ISO/AVCDuration : 1 h 3 minBit rate : 2 710 kb/sWidth : 700 pixelsHeight : 456 pixelsDisplay aspect ratio : 2.2:1Original display aspect rat : 2.2:1Frame rate mode : ConstantFrame rate : 25.000 FPSColor space : YUVChroma subsampling : 4:2:0Bit depth : 8 bitsScan type : ProgressiveBits/(Pixel*Frame) : 0.340Stream size : 1.17 GiB (73%)Title : EnigmaWriting library : x264 core 144 r2525 40bb568Encoding settings : cabac=1 / ref=12 / deblock=1:-2:-2 / analyse=0x3:0x113 / me=umh / subme=10 / psy=1 / psy_rd=1.05:0.15 / mixed_ref=1 / me_range=32 / chroma_me=1 / trellis=2 / 8x8dct=1 / cqm=0 / deadzone=21,11 / fast_pskip=0 / chroma_qp_offset=-3 / threads=12 / lookahead_threads=3 / sliced_threads=0 / nr=0 / decimate=0 / interlaced=0 / bluray_compat=0 / constrained_intra=0 / bframes=10 / b_pyramid=2 / b_adapt=2 / b_bias=0 / direct=3 / weightb=1 / open_gop=0 / weightp=2 / keyint=250 / keyint_min=25 / scenecut=40 / intra_refresh=0 / rc=2pass / mbtree=0 / bitrate=2710 / ratetol=1.0 / qcomp=0.65 / qpmin=0 / qpmax=51 / qpstep=4 / cplxblur=20.0 / qblur=0.5 / ip_ratio=1.40 / pb_ratio=1.30 / aq=1:1.00Language : EnglishDefault : YesForced : NoColor range : LimitedColor primaries : BT.601 PALTransfer characteristics : BT.470 System B, BT.470 System GMatrix coefficients : BT.601Audio #1ID : 2Format : AC-3Format/Info : Audio Coding 3Mode extension : CM (complete main)Format settings, Endianness : BigCodec ID : A_AC3Duration : 1 h 3 minBit rate mode : ConstantBit rate : 448 kb/sChannel(s) : 6 channelsChannel positions : Front: L C R, Side: L R, LFESampling rate : 48.0 kHzFrame rate : 31.250 FPS (1536 spf)Compression mode : LossyStream size : 203 MiB (12%)Language : RussianDefault : YesForced : NoAudio #2ID : 3Format : AC-3Format/Info : Audio Coding 3Mode extension : CM (complete main)Format settings, Endianness : BigCodec ID : A_AC3Duration : 1 h 3 minBit rate mode : ConstantBit rate : 448 kb/sChannel(s) : 6 channelsChannel positions : Front: L C R, Side: L R, LFESampling rate : 48.0 kHzFrame rate : 31.250 FPS (1536 spf)Compression mode : LossyStream size : 203 MiB (12%)Language : EnglishDefault : NoForced : No

Скриншоты

[Цитировать]



Показать сообщения:    

Текущее время: 19-Фев 17:28

Часовой пояс: UTC + 3


Вы не можете начинать темы
Вы не можете отвечать на сообщения
Вы не можете редактировать свои сообщения
Вы не можете удалять свои сообщения
Вы не можете голосовать в опросах
Вы не можете прикреплять файлы к сообщениям
Вы не можете скачивать файлы

!ВНИМАНИЕ!
Сайт не предоставляет электронные версии произведений, а занимается лишь коллекционированием и каталогизацией ссылок, присылаемых и публикуемых на форуме нашими читателями. Если вы являетесь правообладателем какого-либо представленного материала и не желаете, чтобы ссылка на него находилась в нашем каталоге, свяжитесь с нами, и мы незамедлительно удалим ее. Файлы для обмена на трекере предоставлены пользователями сайта, и администрация не несет ответственности за их содержание. Просьба не заливать файлы, защищенные авторскими правами, а также файлы нелегального содержания!