[ Сегодня идет свободное скачивание без начисления Download ]


Статистика раздачи
Нет
 
   
 
Top  
 
 
С унынием в лице / Blue in the Face (1995) Информация о фильме
Название: С унынием в лице
Оригинальное название: Blue in the Face
Год выхода: 1995
Жанр: Комедия
Режиссер: Пол Остер, Уэйн Ван, Харви Ванг
В ролях: Харви Кейтель, Лу Рид, Майкл Дж. Фокс, Розанна, Мэл Горхэм, Джим Джармуш, Лили Томлин, Джаред Харрис, Джанкарло Эспозито, Мэлик Йоба
О фильме:
Мы видим Огги, философа по мироощушению, торгующего табаком. Он все там же и, наверняка все также снимает угол улиц, где находится его магазинчик. На этот раз вереница персонажей, проходящих через это место, многочисленней и разнообразней. Многие из них говорят о себе и о Бруклине прямо в камеру. Других мы узнаем по их диалогам, поступкам, рассказам, снятым достаточно документально. Нужно очень любить этот город, чтобы снять такое кино, не связанное сюжетом. Это картинки, сценки, кусочки из жизни — маленькие осколки мозаики, из которых наше воображение складывает общую картину, а память позволяет как будто увидеть эту картину издалека.

Страна: США
Студия: InterAL Inc., Miramax Films
Продолжительность: 01:23:36
Перевод: Профессиональный (многоголосый, закадровый)
Файл
Кодек: XviD
Качество: HDRip
Видео: 656x352 (1.85:1), 23.976 fps, XviD build 73 ~1108 kbps avg, 0.20 bit/pixel
Звук: 48 kHz, MPEG Layer 3, 2 ch, ~128.00 kbps avg
Субтитры: Отсутствуют
Семпл

MI

General
Complete name : D:Изготовление рипаBlue in the Face.1995.HDRip.by shkiper.avi
Format : AVI
Format/Info : Audio Video Interleave
File size : 745 MiB
Duration : 1h 23mn
Overall bit rate : 1 245 Kbps
Writing application : VirtualDubMod 1.5.10.3 | www.virtualdub-fr.org || (build 2550/release)
Writing library : VirtualDubMod build 2550/release
Video
ID : 0
Format : MPEG-4 Visual
Format profile : Advanced Simple@L5
Format settings, BVOP : 1
Format settings, QPel : No
Format settings, GMC : No warppoints
Format settings, Matrix : Custom
Codec ID : XVID
Codec ID/Hint : XviD
Duration : 1h 23mn
Bit rate : 1 108 Kbps
Width : 656 pixels
Height : 352 pixels
Display aspect ratio : 1.85:1
Frame rate : 23.976 (23976/1000) fps
Color space : YUV
Chroma subsampling : 4:2:0
Bit depth : 8 bits
Scan type : Progressive
Compression mode : Lossy
Bits/(Pixel*Frame) : 0.200
Stream size : 663 MiB (89%)
Writing library : XviD 73
Audio
ID : 1
Format : MPEG Audio
Format version : Version 1
Format profile : Layer 3
Codec ID : 55
Codec ID/Hint : MP3
Duration : 1h 23mn
Bit rate mode : Constant
Bit rate : 128 Kbps
Channel(s) : 2 channels
Sampling rate : 48.0 KHz
Compression mode : Lossy
Stream size : 76.2 MiB (10%)
Alignment : Aligned on interleaves
Interleave, duration : 42 ms (1.00 video frame)
Interleave, preload duratio : 504 ms
Writing library : LAME3.99r
Encoding settings : -m s -V 4 -q 2 -lowpass 17 -b 128

Скриншоты

[Цитировать]



Показать сообщения:    

Текущее время: 28-Май 03:22

Часовой пояс: UTC + 6


Вы не можете начинать темы
Вы не можете отвечать на сообщения
Вы не можете редактировать свои сообщения
Вы не можете удалять свои сообщения
Вы не можете голосовать в опросах
Вы не можете прикреплять файлы к сообщениям
Вы не можете скачивать файлы

!ВНИМАНИЕ!
Сайт не предоставляет электронные версии произведений, а занимается лишь коллекционированием и каталогизацией ссылок, присылаемых и публикуемых на форуме нашими читателями. Если вы являетесь правообладателем какого-либо представленного материала и не желаете, чтобы ссылка на него находилась в нашем каталоге, свяжитесь с нами, и мы незамедлительно удалим ее. Файлы для обмена на трекере предоставлены пользователями сайта, и администрация не несет ответственности за их содержание. Просьба не заливать файлы, защищенные авторскими правами, а также файлы нелегального содержания!