[ Сегодня идет свободное скачивание без начисления Download ]


Статистика раздачи
Нет
 
   
 
Top  
 
 
Большая игра / Big Game (2014) Информация о фильме
Название: Большая игра
Оригинальное название: Big Game
Год выхода: 2014
Жанр: боевик, приключения
Режиссер: Ялмари Хеландер
В ролях: Сэмюэл Л. Джексон (US President William Alan Moore), Онни Томмила (Oskari), Рэй Стивенсон (Morris), Виктор Гарбер (Vice President), Мехмет Куртулуш (Hazar), Тед Левайн (General Underwood), Йорма Томмила (Tapio), Ристо Сэлми (Hamara), Фелисити Хаффман (CIA Director), Джим Бродбент (Herbert), Рауно Джавонен (Safari Pilot), Джеймс Батлер (Otis)
О фильме: История робкого подростка по имени Оскари. Как и его прадеды, согласно традициям, мальчик должен провести один день и одну ночь в непроходимой глуши. Вооружённый только луком и стрелами, он должен вернуться с добычей, которая ознаменует его становление как мужчины. Кто бы мог подумать, что такой добычей станет президент США! Вот так судьба одного из самых влиятельных людей во всем мире оказывается в руках подростка. Вовлеченные в смертельно опасную, но от этого не менее смешную игру в «кошки-мышки», имея всего несколько часов форы - Оскари и Президент США должны сплотиться, чтобы пережить самую необычную ночь в своей жизни.
Семпл
Страна: Финляндия, Великобритания, Германия
Студия: Subzero Film Entertainment, Altitude Film Entertainment....
Продолжительность: 01:30:29
Перевод: Дубляж [iTunes]
Субтитры: Нет
Большая игра / Big Game (2014)
Файл
Кодек: XviD
Качество: HDRip
Видео: 688x288 (2.39:1), 23.976 fps, XviD build 73 ~1021 kbps avg, 0.22 bit/pixel
Звук: 48 kHz, MPEG Layer 3, 2 ch, ~128.00 kbps avg

MediaInfo

Общее
Полное имя : Big.Game.2014.HDRip.ot.Portablius.avi
Формат : AVI
Формат/Информация : Audio Video Interleave
Размер файла : 750 Мбайт
Продолжительность : 1 ч. 30 м.
Общий поток : 1159 Кбит/сек
Программа кодирования : VirtualDubMod 1.5.10.3 | www.virtualdub-fr.org || (build 2550/release)
Библиотека кодирования : VirtualDubMod build 2550/release
Видео
Идентификатор : 0
Формат : MPEG-4 Visual
Профиль формата : Advanced [email protected]
Параметр BVOP формата : 1
Параметр QPel формата : Нет
Параметр GMC формата : Без точки перехода
Параметр матрицы формата : Выборочная
Идентификатор кодека : XVID
Идентификатор кодека/Подсказка : XviD
Продолжительность : 1 ч. 30 м.
Битрейт : 1022 Кбит/сек
Ширина : 688 пикселей
Высота : 288 пикселей
Соотношение сторон : 2,40:1
Частота кадров : 23,976 (23976/1000) кадра/сек
Цветовое пространство : YUV
Субдискретизация насыщенности : 4:2:0
Битовая глубина : 8 бит
Тип развёртки : Прогрессивная
Метод сжатия : С потерями
Бит/(Пиксели*Кадры) : 0.215
Размер потока : 661 Мбайт (88%)
Библиотека кодирования : XviD 73
Аудио
Идентификатор : 1
Формат : MPEG Audio
Версия формата : Version 1
Профиль формата : Layer 3
Идентификатор кодека : 55
Идентификатор кодека/Подсказка : MP3
Продолжительность : 1 ч. 30 м.
Вид битрейта : Постоянный
Битрейт : 128 Кбит/сек
Каналы : 2 канала
Частота : 48,0 КГц
Метод сжатия : С потерями
Размер потока : 82,8 Мбайт (11%)
Выравнивание : Соединение по промежуткам
Продолжительность промежутка : 42 мс. (1,00 видеокадр)
Время предзагрузки промежутка : 504 мс.
Библиотека кодирования : LAME3.99r
Настройки программы : -m s -V 4 -q 2 -lowpass 17 -b 128

Скриншоты

[Цитировать]



Показать сообщения:    

Текущее время: 05-Дек 15:33

Часовой пояс: UTC + 3


Вы не можете начинать темы
Вы не можете отвечать на сообщения
Вы не можете редактировать свои сообщения
Вы не можете удалять свои сообщения
Вы не можете голосовать в опросах
Вы не можете прикреплять файлы к сообщениям
Вы не можете скачивать файлы

!ВНИМАНИЕ!
Сайт не предоставляет электронные версии произведений, а занимается лишь коллекционированием и каталогизацией ссылок, присылаемых и публикуемых на форуме нашими читателями. Если вы являетесь правообладателем какого-либо представленного материала и не желаете, чтобы ссылка на него находилась в нашем каталоге, свяжитесь с нами, и мы незамедлительно удалим ее. Файлы для обмена на трекере предоставлены пользователями сайта, и администрация не несет ответственности за их содержание. Просьба не заливать файлы, защищенные авторскими правами, а также файлы нелегального содержания!