[ Сегодня идет свободное скачивание без начисления Download ]


Статистика раздачи
Нет
 
   
 
Top  
 
 
-Перелетные свиньи / When Pigs Have Wings (2011) [720p] BDRip- Русское название: Перелетные свиньи
Оригинальное название: When Pigs Have Wings
Год выпуска: 2011
Производство: Франция, Германия, Бельгия
Жанр: Комедия, Драма
Описание фильма:
Джафару, рыбаку из сектора Газа, не везет. Он весь в долгах. В его сети попадает лишь мелкая рыбёшка, в то время, как другие рыбаки возвращаются с богатым уловом.
Режиссер: Сильвен Эстибаль / Sylvain Estibal
Актеры: Сэссон Габаи, Байа Белаль, Мириам Текаиа, Гассан Аббас, Халифа Натур, Лотфи Абделли, Ульрих Тукур, Халед Риани, Ури Габэй, Идо Шакед
Продолжительность: 01:38:48
Перевод: Многоголосый закадровый
Язык субтитров: Английский
Вид субтитров: Вшитые

Дата мировой премьеры: 21 сентября 2011
Дата российской премьеры: 15 ноября 2012, «KinoClub»
Видеокодек: MPEG-4 AVC/H.264
Качество видео: BDRip 720p
Видео: H.264, битрейт видео: 4813 kb/s, размер кадра: 1280x694, fps 24.0
Аудио 1: Русский: AC3, 192 kb/s, 2.0, 48kHz, 16 bit - многоголосый закадровый
Аудио 2 : Арабский: DTS, 1510 kb/s, 5.1, 48kHz, 24 bit

MediaInfo

Общее
Уникальный идентификатор : 254603198006088613119508950258559986241 (0xBF8ACAD4051C2C5FA754E899766BAA41)
Полное имя : D:\Video\When.Pigs.Have.Wings.2011.BDRip.720p.dts.ac3.rus.eng.mkv
Формат : Matroska
Версия формата : Version 2
Размер файла : 4,49 Гбайт
Продолжительность : 1 ч. 38 м.
Общий поток : 6509 Кбит/сек
Дата кодирования : UTC 2013-02-04 16:29:39
Программа кодирования : mkvmerge v4.9.1 ('Ich will') сборка от Jul 11 2011 23:53:15
Библиотека кодирования : libebml v1.2.1 + libmatroska v1.1.1
Видео
Идентификатор : 1
Формат : AVC
Формат/Информация : Advanced Video Codec
Профиль формата : High@L4.1
Параметр CABAC формата : Да
Параметр ReFrames формата : 12 кадров
Идентификатор кодека : V_MPEG4/ISO/AVC
Продолжительность : 1 ч. 38 м.
Битрейт : 4813 Кбит/сек
Ширина : 1280 пикселей
Высота : 694 пикселя
Соотношение сторон : 16:9
Частота кадров : 24,000 кадра/сек
Цветовое пространство : YUV
Субдискретизация насыщенности : 4:2:0
Битовая глубина : 8 бит
Тип развёртки : Прогрессивная
Бит/(Пиксели*Кадры) : 0.226
Размер потока : 3,23 Гбайт (72%)
Заголовок : When.Pigs.Have.Wings.2011.BluRay.720p.DTS.x264-CHD
Библиотека кодирования : x264 core 120 r2164+656 2ff844c
Настройки программы : cabac=1 / ref=12 / deblock=1:-3:-3 / analyse=0x3:0x113 / me=umh / subme=10 / psy=1 / fade_compensate=0.00 / psy_rd=1.10:0.15 / mixed_ref=1 / me_range=32 / chroma_me=1 / trellis=2 / 8x8dct=1 / cqm=0 / deadzone=21,11 / fast_pskip=0 / chroma_qp_offset=-2 / threads=12 / sliced_threads=0 / nr=0 / decimate=1 / interlaced=0 / bluray_compat=0 / constrained_intra=0 / fgo=0 / bframes=6 / b_pyramid=2 / b_adapt=2 / b_bias=0 / direct=3 / weightb=1 / open_gop=0 / weightp=2 / keyint=250 / keyint_min=24 / scenecut=40 / intra_refresh=0 / rc_lookahead=40 / rc=2pass / mbtree=0 / bitrate=4813 / ratetol=1.0 / qcomp=0.60 / qpmin=0 / qpmax=69 / qpstep=4 / cplxblur=20.0 / qblur=0.5 / vbv_maxrate=40000 / vbv_bufsize=30000 / nal_hrd=none / ip_ratio=1.40 / pb_ratio=1.30 / aq=1:0.80
Язык : English
Default : Да
Forced : Да
Аудио #1
Идентификатор : 2
Формат : AC-3
Формат/Информация : Audio Coding 3
Расширение режима : CM (complete main)
Идентификатор кодека : A_AC3
Продолжительность : 1 ч. 38 м.
Вид битрейта : Постоянный
Битрейт : 192 Кбит/сек
Каналы : 2 канала
Расположение каналов : Front: L R
Частота : 48,0 КГц
Битовая глубина : 16 бит
Метод сжатия : С потерями
Размер потока : 136 Мбайт (3%)
Заголовок : DD 2.0 @ 192 kbps - MVO
Язык : Russian
Default : Да
Forced : Да
Аудио #2
Идентификатор : 3
Формат : DTS
Формат/Информация : Digital Theater Systems
Идентификатор кодека : A_DTS
Продолжительность : 1 ч. 38 м.
Вид битрейта : Постоянный
Битрейт : 1510 Кбит/сек
Каналы : 6 каналов
Расположение каналов : Front: L C R, Side: L R, LFE
Частота : 48,0 КГц
Битовая глубина : 24 бит
Метод сжатия : С потерями
Размер потока : 1,04 Гбайт (23%)
Заголовок : DTS 5.1 @ 1536 kbps
Default : Нет
Forced : Нет
Текст
Идентификатор : 4
Формат : UTF-8
Идентификатор кодека : S_TEXT/UTF8
Идентификатор кодека/Информация : UTF-8 Plain Text
Язык : English
Default : Нет
Forced : Нет
Скриншоты:

Время раздачи: 24/7 - до 15 скачавших
Релиз от

[Цитировать]



Показать сообщения:    

Текущее время: 09-Дек 14:32

Часовой пояс: UTC + 3


Вы не можете начинать темы
Вы не можете отвечать на сообщения
Вы не можете редактировать свои сообщения
Вы не можете удалять свои сообщения
Вы не можете голосовать в опросах
Вы не можете прикреплять файлы к сообщениям
Вы не можете скачивать файлы

!ВНИМАНИЕ!
Сайт не предоставляет электронные версии произведений, а занимается лишь коллекционированием и каталогизацией ссылок, присылаемых и публикуемых на форуме нашими читателями. Если вы являетесь правообладателем какого-либо представленного материала и не желаете, чтобы ссылка на него находилась в нашем каталоге, свяжитесь с нами, и мы незамедлительно удалим ее. Файлы для обмена на трекере предоставлены пользователями сайта, и администрация не несет ответственности за их содержание. Просьба не заливать файлы, защищенные авторскими правами, а также файлы нелегального содержания!