[ Сегодня идет свободное скачивание без начисления Download ]


Статистика раздачи
Нет
 
   
 
Top  
 
 
Чудо на 34-й улице / Miracle on 34th Street (1994) BDRip 1080p Информация о фильме:
Название: Чудо на 34-й улице
Оригинальное название: Miracle on 34th Street
Год выхода: 1994
Жанр: Фэнтези, приключения, семейный, драма, ремейк
Режиссёр: Лес Мэйфилд
В ролях: Ричард Аттенборо, Элизабет Перкинс, Мара Уилсон, Дилан МакДермотт, Дж.Т. Уолш, Джеймс Ремар, Джейн Ливз, Саймон Джонс, Уильям Уиндом, Роберт Проски
О фильме: Маленькие дети искренне верят в чудеса и всегда с замиранием сердца ждут самого волшебного праздника в году. А шестилетняя Сюзан, у которой нет папы, не верит, что Санта Клаус — настоящий волшебник. Мама давным-давно открыла девочке его «секрет». И хотя Сюзан, как и все ребята, составляет свой Рождественский список для Санты, она не рассчитывает получить самые желанные подарки в жизни: новый дом, папу и маленького братика. Но чудо происходит после встречи с Санта Клаусом в крупном нью-йоркском универмаге «Коул». Сюзан понимает: Санта самый, что ни на есть настоящий, и ее заветные мечты обязательно сбудутся...

Выпущено: США, 20th Century Fox Film Corporation, Hughes Entertainment
Продолжительность: 01:54:00
Перевод: Профессиональный многоголосый закадровый (Первый канал)
Перевод: авторский одноголосый (В. Дохалов)
Оригинальная аудио-дорожка: Английская
Файл:
Контейнер: MKV
Кодек: MPEG-4 AVC
Качество: BDRip 1080p [Исходник: Blu-ray Remux (1080p)]
Видео: MPEG-4 AVC, 12 Мбит/с, 1920x1040 (1.85:1), 23.976 кадр/с, 0.251 bit/pixel
Аудио #1: Русский, Dolby AC3, 48000 Гц, 192 Кбит/с, 2 канала (Стерео) - MVO [Первый канал]
Аудио #2: Русский, Dolby AC3, 48000 Гц, 192 Кбит/с, 2 канала (Стерео) - AVO [В. Дохалов]
Аудио #3: Английский, DTS, 48000 Гц, 1510 Кбит/с, 6 каналов (5.1) - Оригинал
Субтитры: Русские, английские (полные, SDH) SRT
Навигация по главам: Есть (сохранены оригинальные чаптеры, как на Blu-ray)

MediaInfo

General
Unique ID : 212188336771610298033151685949990081338 (0x9FA1FCB6C494BBAA9EA418C372B7933A)
Complete name : Miracle.on.34th.Street.1994.BDRip.1080p.mkv
Format : Matroska
Format version : Version 4 / Version 2
File size : 11.1 GiB
Duration : 1h 54mn
Overall bit rate : 13.9 Mbps
Movie name : Чудо на 34-й улице / Miracle on 34th Street (1994) BDRip (1080p) от ivandubskoj
Encoded date : UTC 2016-08-18 18:53:01
Writing application : mkvmerge v7.9.0 ('Birds') 64bit
Writing library : libebml v1.3.1 + libmatroska v1.4.2
Video
ID : 1
Format : AVC
Format/Info : Advanced Video Codec
Format profile : High@L4.1
Format settings, CABAC : Yes
Format settings, ReFrames : 4 frames
Codec ID : V_MPEG4/ISO/AVC
Duration : 1h 54mn
Bit rate : 12.0 Mbps
Width : 1 920 pixels
Height : 1 040 pixels
Display aspect ratio : 1.85:1
Frame rate mode : Constant
Frame rate : 23.976 fps
Color space : YUV
Chroma subsampling : 4:2:0
Bit depth : 8 bits
Scan type : Progressive
Bits/(Pixel*Frame) : 0.251
Stream size : 9.34 GiB (84%)
Title : Miracle on 34th Street (1994)
Writing library : x264 core 148 r2597 e86f3a1
Encoding settings : cabac=1 / ref=4 / deblock=1:-3:-3 / analyse=0x3:0x113 / me=umh / subme=11 / psy=1 / psy_rd=1.10:0.00 / mixed_ref=1 / me_range=32 / chroma_me=1 / trellis=2 / 8x8dct=1 / cqm=0 / deadzone=21,11 / fast_pskip=0 / chroma_qp_offset=-2 / threads=6 / lookahead_threads=1 / sliced_threads=0 / nr=0 / decimate=0 / interlaced=0 / bluray_compat=0 / constrained_intra=0 / bframes=8 / b_pyramid=2 / b_adapt=2 / b_bias=0 / direct=3 / weightb=1 / open_gop=0 / weightp=2 / keyint=240 / keyint_min=23 / scenecut=40 / intra_refresh=0 / rc_lookahead=40 / rc=2pass / mbtree=0 / bitrate=12000 / ratetol=1.0 / qcomp=0.60 / qpmin=0 / qpmax=69 / qpstep=4 / cplxblur=20.0 / qblur=0.5 / vbv_maxrate=50000 / vbv_bufsize=62500 / nal_hrd=none / filler=0 / ip_ratio=1.40 / pb_ratio=1.30 / aq=1:1.00
Language : English
Default : Yes
Forced : No
Audio #1
ID : 2
Format : AC-3
Format/Info : Audio Coding 3
Mode extension : CM (complete main)
Format settings, Endianness : Big
Codec ID : A_AC3
Duration : 1h 54mn
Bit rate mode : Constant
Bit rate : 192 Kbps
Channel(s) : 2 channels
Channel positions : Front: L R
Sampling rate : 48.0 KHz
Bit depth : 16 bits
Compression mode : Lossy
Stream size : 157 MiB (1%)
Title : MVO [Первый канал]
Language : Russian
Default : Yes
Forced : No
Audio #2
ID : 3
Format : AC-3
Format/Info : Audio Coding 3
Mode extension : CM (complete main)
Format settings, Endianness : Big
Codec ID : A_AC3
Duration : 1h 54mn
Bit rate mode : Constant
Bit rate : 192 Kbps
Channel(s) : 2 channels
Channel positions : Front: L R
Sampling rate : 48.0 KHz
Bit depth : 16 bits
Compression mode : Lossy
Stream size : 157 MiB (1%)
Title : AVO [B. Дохалов]
Language : Russian
Default : No
Forced : No
Audio #3
ID : 4
Format : DTS
Format/Info : Digital Theater Systems
Mode : 16
Format settings, Endianness : Big
Codec ID : A_DTS
Duration : 1h 54mn
Bit rate mode : Constant
Bit rate : 1 509 Kbps
Channel(s) : 6 channels
Channel positions : Front: L C R, Side: L R, LFE
Sampling rate : 48.0 KHz
Bit depth : 24 bits
Compression mode : Lossy
Stream size : 1.20 GiB (11%)
Title : Original
Language : English
Default : No
Forced : No
Text #1
ID : 5
Format : UTF-8
Codec ID : S_TEXT/UTF8
Codec ID/Info : UTF-8 Plain Text
Title : Full
Language : Russian
Default : No
Forced : No
Text #2
ID : 6
Format : UTF-8
Codec ID : S_TEXT/UTF8
Codec ID/Info : UTF-8 Plain Text
Title : Full
Language : English
Default : No
Forced : No
Text #3
ID : 7
Format : UTF-8
Codec ID : S_TEXT/UTF8
Codec ID/Info : UTF-8 Plain Text
Title : Full [SDH]
Language : English
Default : No
Forced : No
Menu
00:00:00.000 : en:Chapter 1
00:03:29.625 : en:Chapter 2
00:06:39.731 : en:Chapter 3
00:10:13.654 : en:Chapter 4
00:14:42.172 : en:Chapter 5
00:18:45.374 : en:Chapter 6
00:23:21.148 : en:Chapter 7
00:27:17.844 : en:Chapter 8
00:33:08.945 : en:Chapter 9
00:38:27.054 : en:Chapter 10
00:43:02.161 : en:Chapter 11
00:49:21.792 : en:Chapter 12
00:55:29.659 : en:Chapter 13
00:57:03.585 : en:Chapter 14
01:02:10.977 : en:Chapter 15
01:05:01.981 : en:Chapter 16
01:11:27.198 : en:Chapter 17
01:14:11.196 : en:Chapter 18
01:24:01.244 : en:Chapter 19
01:28:57.582 : en:Chapter 20
01:32:01.599 : en:Chapter 21
01:40:15.300 : en:Chapter 22
01:44:02.861 : en:Chapter 23
01:49:48.582 : en:Chapter 24

Скриншоты



[Цитировать]



Показать сообщения:    

Текущее время: 07-Дек 11:36

Часовой пояс: UTC + 3


Вы не можете начинать темы
Вы не можете отвечать на сообщения
Вы не можете редактировать свои сообщения
Вы не можете удалять свои сообщения
Вы не можете голосовать в опросах
Вы не можете прикреплять файлы к сообщениям
Вы не можете скачивать файлы

!ВНИМАНИЕ!
Сайт не предоставляет электронные версии произведений, а занимается лишь коллекционированием и каталогизацией ссылок, присылаемых и публикуемых на форуме нашими читателями. Если вы являетесь правообладателем какого-либо представленного материала и не желаете, чтобы ссылка на него находилась в нашем каталоге, свяжитесь с нами, и мы незамедлительно удалим ее. Файлы для обмена на трекере предоставлены пользователями сайта, и администрация не несет ответственности за их содержание. Просьба не заливать файлы, защищенные авторскими правами, а также файлы нелегального содержания!