[ Сегодня идет свободное скачивание без начисления Download ]


Статистика раздачи
Нет
 
   
 
Top  
 
 
Месть от кутюр / Портниха / The Dressmaker (2015) BDRip 720p Год выпуска: 2015
Страна: Австралия
Жанр: драма
Продолжительность: 01:58:52
Перевод: Профессиональный (многоголосый, закадровый) [FocusStudio]
Cубтитры: нет
Режиссер: Джослин Мурхаус / Jocelyn Moorhouse
В ролях: Кейт Уинслет, Лиам Хемсворт, Сара Снук, Хьюго Уивинг, Кэролайн Гудолл, Джуди Дэвис, Керри Фокс, Ребекка Гибни, Шэйн Джейкобсон, Хейли Магнус
Описание: Гламурная женщина возвращается в родной город, откуда уехала еще ребенком после обвинения в убийстве. Жители городка сначала не принимают ее, но постепенно она завоевывает расположение местных дам благодаря остроумию и умению кроить безупречные наряды.
Качество видео: BDRip 720p
Формат видео: MKV
Видео: 1280х538, 23.976 fps, AVC ~5169 kbps avg
Аудио: 48 kHz, AC3 Dolby Digital, 3/2 (L,C,R,l,r) + LFE ch, ~448 kbp

МедиаИнфо

The.Dressmaker.2015.720p_BDRip_[scarabey.org].mkv
Формат : Matroska
Версия формата : Version 4 / Version 2
Размер файла : 4,76 Гбайт
Продолжительность : 1 ч. 58 м.
Общий поток : 5731 Кбит/сек
Дата кодирования : UTC 2016-08-17 11:43:42
Программа кодирования : mkvmerge v6.1.0 ('Old Devil') built on Mar 4 2013 09:10:42
Библиотека кодирования : libebml v1.3.0 + libmatroska v1.4.0
Видео
Идентификатор : 1
Формат : AVC
Формат/Информация : Advanced Video Codec
Профиль формата : [email protected]
Параметр CABAC формата : Да
Параметр ReFrames формата : 12 кадров
Идентификатор кодека : V_MPEG4/ISO/AVC
Продолжительность : 1 ч. 58 м.
Битрейт : 5169 Кбит/сек
Ширина : 1280 пикселей
Высота : 538 пикселей
Соотношение сторон : 2,40:1
Режим частоты кадров : Постоянный
Частота кадров : 23,976 (24000/1001) кадра/сек
Цветовое пространство : YUV
Субдискретизация насыщенности : 4:2:0
Битовая глубина : 8 бит
Тип развёртки : Прогрессивная
Бит/(Пиксели*Кадры) : 0.313
Размер потока : 4,29 Гбайт (90%)
Заголовок : ENCODE CRiME
Библиотека кодирования : x264 core 148 r2665 a01e339
Настройки программы : cabac=1 / ref=12 / deblock=1:-3:-3 / analyse=0x3:0x133 / me=umh / subme=10 / psy=1 / psy_rd=1.00:0.00 / mixed_ref=1 / me_range=32 / chroma_me=1 / trellis=2 / 8x8dct=1 / cqm=0 / deadzone=21,11 / fast_pskip=0 / chroma_qp_offset=-2 / threads=6 / lookahead_threads=1 / sliced_threads=0 / nr=0 / decimate=0 / interlaced=0 / bluray_compat=0 / constrained_intra=0 / bframes=10 / b_pyramid=2 / b_adapt=2 / b_bias=0 / direct=3 / weightb=1 / open_gop=0 / weightp=2 / keyint=250 / keyint_min=24 / scenecut=40 / intra_refresh=0 / rc_lookahead=60 / rc=crf / mbtree=0 / crf=16.0 / qcomp=0.65 / qpmin=0 / qpmax=69 / qpstep=4 / vbv_maxrate=62500 / vbv_bufsize=78125 / crf_max=0.0 / nal_hrd=none / filler=0 / ip_ratio=1.32 / pb_ratio=1.23 / aq=3:0.73 / zones=765,1200,crf=14/2792,2908,crf=14/8362,8458,crf=14/17049,17123,crf=14/21505,22068,crf=14/4555,45633,crf=12/54636,54820,crf=13/80018,80585,crf=14/115186,115299,crf=13/115982,116082,crf=13/121192,121306,crf=12/163559,171008,crf=22
Язык : English
Default : Да
Forced : Нет
Аудио
Идентификатор : 2
Формат : AC-3
Формат/Информация : Audio Coding 3
Расширение режима : CM (complete main)
Параметр Endianness формата : Big
Идентификатор кодека : A_AC3
Продолжительность : 1 ч. 58 м.
Вид битрейта : Постоянный
Битрейт : 448 Кбит/сек
Каналы : 6 каналов
Расположение каналов : Front: L C R, Side: L R, LFE
Частота : 48,0 КГц
Частота кадров : 31,250 кадров/сек (1536 spf)
Метод сжатия : С потерями
Размер потока : 381 Мбайт (8%)
Заголовок : FS
Язык : Russian
Default : Да
Forced : Нет
Меню
00:00:00.000 : en:00:00:00.000
00:05:48.765 : en:00:05:48.765
00:13:41.612 : en:00:13:41.612
00:19:52.066 : en:00:19:52.066
00:24:33.055 : en:00:24:33.055
00:30:12.352 : en:00:30:12.352
00:36:13.296 : en:00:36:13.296
00:44:05.893 : en:00:44:05.893
00:49:25.004 : en:00:49:25.004
00:55:34.665 : en:00:55:34.665
01:04:22.317 : en:01:04:22.317
01:13:23.149 : en:01:13:23.149
01:22:02.459 : en:01:22:02.459
01:28:41.149 : en:01:28:41.149
01:35:56.209 : en:01:35:56.209
01:43:07.932 : en:01:43:07.932
01:46:45.065 : en:01:46:45.065
01:54:17.225 : en:01:54:17.225

[Цитировать]



Показать сообщения:    

Текущее время: 06-Дек 22:44

Часовой пояс: UTC + 3


Вы не можете начинать темы
Вы не можете отвечать на сообщения
Вы не можете редактировать свои сообщения
Вы не можете удалять свои сообщения
Вы не можете голосовать в опросах
Вы не можете прикреплять файлы к сообщениям
Вы не можете скачивать файлы

!ВНИМАНИЕ!
Сайт не предоставляет электронные версии произведений, а занимается лишь коллекционированием и каталогизацией ссылок, присылаемых и публикуемых на форуме нашими читателями. Если вы являетесь правообладателем какого-либо представленного материала и не желаете, чтобы ссылка на него находилась в нашем каталоге, свяжитесь с нами, и мы незамедлительно удалим ее. Файлы для обмена на трекере предоставлены пользователями сайта, и администрация не несет ответственности за их содержание. Просьба не заливать файлы, защищенные авторскими правами, а также файлы нелегального содержания!