[ Today is free to download without increasing Download ]

DL-List and Torrent activity
Complete: [ 1 ]
Иллюзия обмана 2 / Now You See Me 2«Вы еще ничего не видели»-- Страна: США
Производство: Lionsgate, Summit Entertainment
Год выпуска: 2016
Жанр: боевик, триллер, комедия
Продолжительность: 02:09:29
Режиссер: Джон М. Чу
Авторы сценария: Эд Соломон, Пит Чиарелли, Боаз Якин
Перевод: Профессиональный (полное дублирование) - лицензия
Субтитры: нет--В ролях: Лиззи Каплан, Дэниэл Рэдклифф, Дэйв Франко, Марк Руффало, Джесси Айзенберг, Морган Фриман, Вуди Харрельсон, Майкл Кейн--Описание: «Четыре всадника», команда лучших иллюзионистов мира, снова в сборе! Их «магия» стала еще совершеннее, а враги — опаснее. На сей раз им предстоит спасти свою репутацию и вывести на чистую воду жестокого техномагната…-- --Качество: HDRip
Формат: АVI
Видео кодек: XviD
Аудио кодек: АС3
Видео: 720x400 (16:9), 24.000 fps, XviD ~1 143 kbps avg
Аудио: 48.0 kHz, AC3 Dolby Digital, 3/2 (L,C,R,l,r) + LFE ch, ~448 kbps--Дата премьеры (мир): 2 июня 2016
Дата премьеры (РФ): 9 июня 2016, «Централ Партнершип»-- --

Media Info

Complete name : Now.You.See.Me.2.2016.D.BDRip.1490MB-HDT.avi
Format : AVI
Format/Info : Audio Video Interleave
File size : 1.45 GiB
Duration : 2h 9mn
Overall bit rate : 1 599 Kbps
Video #0
ID : 0
Format : MPEG-4 Visual
Format profile : Advanced Simple@L5
Format settings, BVOP : 2
Format settings, QPel : No
Format settings, GMC : No warppoints
Format settings, Matrix : Default (H.263)
Muxing mode : Packed bitstream
Codec ID : XVID
Codec ID/Hint : XviD
Duration : 2h 9mn
Bit rate : 1 143 Kbps
Width : 720 pixels
Height : 400 pixels
Display aspect ratio : 16:9
Frame rate : 24.000 fps
Color space : YUV
Chroma subsampling : 4:2:0
Bit depth : 8 bits
Scan type : Progressive
Compression mode : Lossy
Bits/(Pixel*Frame) : 0.165
Stream size : 1.03 GiB (71%)
Writing library : XviD 66
Audio #1
ID : 1
Format : AC-3
Format/Info : Audio Coding 3
Mode extension : CM (complete main)
Format settings, Endianness : Big
Codec ID : 2000
Duration : 2h 9mn
Bit rate mode : Constant
Bit rate : 448 Kbps
Channel(s) : 6 channels
Channel positions : Front: L C R, Side: L R, LFE
Sampling rate : 48.0 KHz
Compression mode : Lossy
Stream size : 415 MiB (28%)
Alignment : Aligned on interleaves
Interleave, duration : 64 ms (1.54 video frames)
Interleave, preload duration : 192 ms
Title : 00000.track_4352



Display posts:    

Current time is: 21-Oct 17:53

All times are UTC + 3

You cannot post new topics in this forum
You cannot reply to topics in this forum
You cannot edit your posts in this forum
You cannot delete your posts in this forum
You cannot vote in polls in this forum
You cannot attach files in this forum
You cannot download files in this forum

The site does not give electronic versions of products, and is engaged only in a collecting and cataloguing of the references sent and published at a forum by our readers. If you are the legal owner of any submitted material and do not wish that the reference to it was in our catalogue, contact us and we shall immediately remove her. Files for an exchange on tracker are given by users of a site, and the administration does not bear the responsibility for their maintenance. The request to not fill in the files protected by copyrights, and also files of the illegal maintenance!