[ Сегодня идет свободное скачивание без начисления Download ]


Статистика раздачи
Нет
 
   
 
Top  
 
 
Эд из телевизора / Edtv (1999) Страна: США
Производство: Universal Pictures, Imagine Entertainment
Год выпуска: 1999
Жанр: драма, комедия
Продолжительность: 02:03:05
Режиссер: Рон Ховард
Авторы сценария: Эмиль Годро, Сильви Бушар, Лауэлл Ганц
В ролях: Мэттью МакКонахи, Дженна Элфман, Вуди Харрельсон, Сэлли Кёркленд, Мартин Ландау, Эллен ДеДженерес, Роб Райнер, Деннис Хоппер
Описание: Эд Пекурни — обыкновенный парень, работающий в видео-прокате. Ближайшее будущее в роли скромного служащего не обещает никаких приятных сюрпризов, и он решается на рискованное мероприятие. Понимая, что терять ему нечего, Эд соглашается стать звездой нового телевизионного шоу. Жизнь Эда будут снимать 24 часа в сутки без перерыва: зрители будут следить за тем, как он работает, ест, спит и ходит в туалет. Никто и не подозревал, что смелая экспериментальная телепередача будет сногсшибательно популярна, а сам Эд станет национальной знаменитостью...

Перевод: Профессиональный (многоголосый, закадровый) | Первый канал
Роли озвучивали: Олег Форостенко, Пётр Иващенко, Ольга Гаспарова, Алексей Демидов, Людмила Шувалова
Субтитры: нет-Качество: WEB-DLRip
Формат: АVI
Видео кодек: XviD
Аудио кодек: АС3
Видео: 720x400 (16:9), 23.976 fps, XviD build 73 ~1 464 kbps avg, 0.212 bit/pixel
Аудио: 48.0 kHz, AC3 Dolby Digital, 2/0 (L,R) ch, ~192 kbps
Бюджет: $80 000 000
Дата премьеры (мир): 26 марта 1999
Дополнительная информация: над рипом работали Slim9174, JUSTKANT

Media Info

General
Complete name : Эд из телевизора (Первый канал).avi
Format : AVI
Format/Info : Audio Video Interleave
File size : 1.43 GiB
Duration : 2 h 3 min
Overall bit rate : 1 665 kb/s
Movie name : Эд из телевизора / EdTV (Первый канал/СТС)
Director : JUSTKANT
Writing application : VirtualDubMod 1.5.10.3 | (build 2550/release)
Copyright : На русский язык фильм озвучен по заказу Первого канала
Video
ID : 0
Format : MPEG-4 Visual
Format profile : Advanced Simple@L5
Format settings, BVOP : 1
Format settings, QPel : No
Format settings, GMC : No warppoints
Format settings, Matrix : Custom
Codec ID : XVID
Codec ID/Hint : XviD
Duration : 2 h 3 min
Bit rate : 1 464 kb/s
Width : 720 pixels
Height : 400 pixels
Display aspect ratio : 16:9
Frame rate : 23.976 (23976/1000) FPS
Color space : YUV
Chroma subsampling : 4:2:0
Bit depth : 8 bits
Scan type : Progressive
Compression mode : Lossy
Bits/(Pixel*Frame) : 0.212
Stream size : 1.26 GiB (88%)
Writing library : XviD 73
Audio
ID : 1
Format : AC-3
Format/Info : Audio Coding 3
Mode extension : CM (complete main)
Format settings, Endianness : Big
Codec ID : 2000
Duration : 2 h 3 min
Bit rate mode : Constant
Bit rate : 192 kb/s
Channel(s) : 2 channels
Channel positions : Front: L R
Sampling rate : 48.0 kHz
Frame rate : 31.250 FPS (1536 spf)
Compression mode : Lossy
Stream size : 169 MiB (12%)
Alignment : Split accross interleaves
Interleave, duration : 42 ms (1.00 video frame)
Interleave, preload duratio : 500 ms
Title : Первый канал/СТС: Олег Форостенко, Пётр Иващенко, Ольга Гаспарова, Алексей Демидов и Людмила Шувалова

Скриншоты

[Цитировать]



Показать сообщения:    

Текущее время: 07-Дек 21:22

Часовой пояс: UTC + 3


Вы не можете начинать темы
Вы не можете отвечать на сообщения
Вы не можете редактировать свои сообщения
Вы не можете удалять свои сообщения
Вы не можете голосовать в опросах
Вы не можете прикреплять файлы к сообщениям
Вы не можете скачивать файлы

!ВНИМАНИЕ!
Сайт не предоставляет электронные версии произведений, а занимается лишь коллекционированием и каталогизацией ссылок, присылаемых и публикуемых на форуме нашими читателями. Если вы являетесь правообладателем какого-либо представленного материала и не желаете, чтобы ссылка на него находилась в нашем каталоге, свяжитесь с нами, и мы незамедлительно удалим ее. Файлы для обмена на трекере предоставлены пользователями сайта, и администрация не несет ответственности за их содержание. Просьба не заливать файлы, защищенные авторскими правами, а также файлы нелегального содержания!