[ Сегодня идет свободное скачивание без начисления Download ]


Статистика раздачи
Скачал: [ 1 ]
 
   
 
Top  
 
 
Просто секс / Casual Sex? (1988) DVDRip-AVC Название: Просто секс
Оригинальное название: Casual Sex?
Год выхода: 1988
Страна: США
Студия: Jascat, Universal Pictures
Продолжительность: 01:23:36
Жанр: комедия, ...
Режиссер: Женевьева Роберт
В ролях: Лиа Томпсон, Виктория Джексон, Стивен Шеллен, Джерри Ливайн, Эндрю Дайс Клэй, Мэри Гросс, Валери Брейман, Питер Дворски, Дэвид Сарджент, Синтия Филлипс, ...
Перевод: Профессиональный (многоголосный, закадровый) R5 «Юниверсал Пикчерс Рус»
О фильме: Решив наладить разумные отношения с мужчиной, который не боится взять на себя обязательства, две подруги отправляются на шикарный курорт.
Питая большие надежды, Стейси и Мелисса намерены поймать в свои сети Идеального Мужчину. Но, к сожалению, все мужчины, которых они встречают, не хотят думать ни о чем другом, кроме… просто секса…

Кодек: x264
Качество: DVDRip-AVC
Видео: 1020x552, 4500 kbps, 25 fps
Аудио #1: AC-3, 2 ch, 192 kbps (Rus) - MVO R5
Аудио #2: AC-3, 2 ch, 192 kbps (Eng)
Субтитры: Английские

Дополнительная информация

За исходник спасибо - makc365
После того как сделал, наткнулся на WEB-DL 720p - если б видел раньше, конечно бы делать не стал. Но вот сравнение DVDRip и WEB-DL 720p:

MediaInfo

x264 [info]: frame I:876 Avg QP:15.81 size: 74681
x264 [info]: frame P:24471 Avg QP:18.32 size: 41751
x264 [info]: frame B:100077 Avg QP:20.30 size: 17318
x264 [info]: consecutive B-frames: 1.1% 1.4% 4.8% 15.4% 13.5% 52.2% 7.5% 2.2% 0.8% 0.4% 0.3% 0.3% 0.1%
Общее
Уникальный идентификатор : 216829128186223828443177749953750816041 (0xA31FC5656DA395C1A1AC5CC4AAB4D529)
Полное имя : Просто секс (Casual Sex) 1988 DVDRip.mkv
Формат : Matroska
Версия формата : Version 2
Размер файла : 2,85 Гбайт
Продолжительность : 1 ч. 23 м.
Общий поток : 4883 Кбит/сек
Дата кодирования : UTC 2016-08-14 03:35:15
Программа кодирования : mkvmerge v4.0.0 ('The Stars were mine') сборка от Jun 6 2010 16:18:42
Библиотека кодирования : libebml v1.0.0 + libmatroska v1.0.0
Видео
Идентификатор : 1
Формат : AVC
Формат/Информация : Advanced Video Codec
Профиль формата : High@L4.1
Параметр CABAC формата : Да
Параметр ReFrames формата : 12 кадров
Идентификатор кодека : V_MPEG4/ISO/AVC
Продолжительность : 1 ч. 23 м.
Битрейт : 4500 Кбит/сек
Ширина : 1020 пикселей
Высота : 552 пикселя
Соотношение сторон : 1,85:1
Режим частоты кадров : Постоянный
Частота кадров : 25,000 кадров/сек
Цветовое пространство : YUV
Субдискретизация насыщенности : 4:2:0
Битовая глубина : 8 бит
Тип развёртки : Прогрессивная
Бит/(Пиксели*Кадры) : 0.320
Размер потока : 2,57 Гбайт (90%)
Библиотека кодирования : x264 core 146 r2538 121396c
Настройки программы : cabac=1 / ref=12 / deblock=1:-3:-3 / analyse=0x3:0x133 / me=umh / subme=11 / psy=1 / psy_rd=1.00:0.00 / mixed_ref=1 / me_range=32 / chroma_me=1 / trellis=2 / 8x8dct=1 / cqm=0 / deadzone=21,11 / fast_pskip=0 / chroma_qp_offset=-2 / threads=12 / lookahead_threads=2 / sliced_threads=0 / nr=0 / decimate=0 / interlaced=0 / bluray_compat=0 / constrained_intra=0 / bframes=12 / b_pyramid=2 / b_adapt=2 / b_bias=0 / direct=3 / weightb=1 / open_gop=0 / weightp=2 / keyint=250 / keyint_min=25 / scenecut=40 / intra_refresh=0 / rc=2pass / mbtree=0 / bitrate=4500 / ratetol=1.0 / qcomp=0.60 / qpmin=0 / qpmax=69 / qpstep=4 / cplxblur=20.0 / qblur=0.5 / ip_ratio=1.40 / pb_ratio=1.30 / aq=1:0.80
Язык : English
Default : Нет
Forced : Нет
Аудио #1
Идентификатор : 2
Формат : AC-3
Формат/Информация : Audio Coding 3
Расширение режима : CM (complete main)
Параметр Endianness формата : Big
Идентификатор кодека : A_AC3
Продолжительность : 1 ч. 23 м.
Вид битрейта : Постоянный
Битрейт : 192 Кбит/сек
Каналы : 2 канала
Расположение каналов : Front: L R
Частота : 48,0 КГц
Частота кадров : 31,250 кадров/сек (1536 spf)
Метод сжатия : С потерями
Размер потока : 115 Мбайт (4%)
Заголовок : MVO R5
Язык : Russian
Default : Нет
Forced : Нет
Аудио #2
Идентификатор : 3
Формат : AC-3
Формат/Информация : Audio Coding 3
Профиль формата : Dolby Digital
Расширение режима : CM (complete main)
Параметр Endianness формата : Big
Идентификатор кодека : A_AC3
Продолжительность : 1 ч. 23 м.
Вид битрейта : Постоянный
Битрейт : 192 Кбит/сек
Каналы : 2 канала
Расположение каналов : Front: L R
Частота : 48,0 КГц
Частота кадров : 31,250 кадров/сек (1536 spf)
Метод сжатия : С потерями
Размер потока : 115 Мбайт (4%)
Язык : English
Default : Нет
Forced : Нет
Текст
Идентификатор : 4
Формат : UTF-8
Идентификатор кодека : S_TEXT/UTF8
Идентификатор кодека/Информация : UTF-8 Plain Text
Язык : English
Default : Нет
Forced : Нет

Скриншоты


[Цитировать]



Показать сообщения:    

Текущее время: 08-Дек 05:04

Часовой пояс: UTC + 3


Вы не можете начинать темы
Вы не можете отвечать на сообщения
Вы не можете редактировать свои сообщения
Вы не можете удалять свои сообщения
Вы не можете голосовать в опросах
Вы не можете прикреплять файлы к сообщениям
Вы не можете скачивать файлы

!ВНИМАНИЕ!
Сайт не предоставляет электронные версии произведений, а занимается лишь коллекционированием и каталогизацией ссылок, присылаемых и публикуемых на форуме нашими читателями. Если вы являетесь правообладателем какого-либо представленного материала и не желаете, чтобы ссылка на него находилась в нашем каталоге, свяжитесь с нами, и мы незамедлительно удалим ее. Файлы для обмена на трекере предоставлены пользователями сайта, и администрация не несет ответственности за их содержание. Просьба не заливать файлы, защищенные авторскими правами, а также файлы нелегального содержания!