[ Сегодня идет свободное скачивание без начисления Download ]


Статистика раздачи
Нет
 
   
 
Top  
 
 
Тайна виллы «Грета» (1983) SATRip-AVC Информация о фильме
Оригинальное название: Тайна виллы «Грета»
Год выпуска: 1983
Жанр: Криминал, детектив
Выпущено: СССР, Мосфильм
Режиссер: Тамара Лисициан
В ролях: Ивар Калныньш, Александр Збруев, Елена Финогеева, Юрий Соломин, Витаутас Томкус, Ион Унгуряну, Гурген Тонунц, Валентин Никулин, Семён Чунгак, Семён Фарада, Миколас Валдас Ятаутис, Олег Анофриев, Валентин Куклик, Абессалом Лория, Иосиф Рыклин, Улдис Лиелдидж, Алла Чеботарёва, Лидия Андреева, Эммануил Геллер, Константин Кошкин, Мирча Соцки-Войническу, Валерий Беляков, Павел Махотин, Владимир Пицек, Владимир Кремена, Альгис Арлаускас, Лучана Бабичкова
О фильме: Используя сложную политическую обстановку, тайная масонская ложа "Щит и шлем" под руководством главы американского посольства (агента ЦРУ) готовит государственный переворот. Репортер уголовной хроники Ян Плинто, наблюдающий за действиями масонов, проникает в штаб-квартиру заговорщиков, узнает дату предстоящего переворота - и блестяще разрушает эти коварные планы...

Файл
Качество: SATRip (AVC)
Видео: MPEG-4 AVC, 1923 Кбит/с, [email protected]
Аудио: AC3, 2 ch, 192 Кбит/с
Продолжительность: 01:35:33
Язык: Русский

MI

General
Unique ID : 242071226118831975985155935319158070975 (0xB61D38E90665E7EC9FA2C555BC7E9EBF)
Complete name : E:Tayna.villy.Greta.1983.ExKinoRay.mkv
Format : Matroska
Format version : Version 2
File size : 1.41 GiB
Duration : 1 h 35 min
Overall bit rate : 2 117 kb/s
Movie name : Тайна виллы Грета 1983 from ExKinoRay
Encoded date : UTC 2016-08-16 23:35:46
Writing application : mkvmerge v7.6.0 ('Garden of Dreams') 32bit built on Feb 11 2015 00:18:47
Writing library : libebml v1.3.1 + libmatroska v1.4.2
Video
ID : 1
Format : AVC
Format/Info : Advanced Video Codec
Format profile : [email protected]
Format settings, CABAC : Yes
Format settings, ReFrames : 14 frames
Codec ID : V_MPEG4/ISO/AVC
Duration : 1 h 35 min
Bit rate : 1 923 kb/s
Width : 702 pixels
Height : 556 pixels
Display aspect ratio : 4:3
Original display aspect rat : 4:3
Frame rate mode : Constant
Frame rate : 25.000 FPS
Color space : YUV
Chroma subsampling : 4:2:0
Bit depth : 8 bits
Scan type : Progressive
Bits/(Pixel*Frame) : 0.197
Stream size : 1.26 GiB (89%)
Title : Enigma
Writing library : x264 core 144 r2525 40bb568
Encoding settings : cabac=1 / ref=14 / deblock=1:-2:-2 / analyse=0x3:0x113 / me=umh / subme=10 / psy=1 / psy_rd=1.05:0.12 / mixed_ref=1 / me_range=32 / chroma_me=1 / trellis=2 / 8x8dct=1 / cqm=0 / deadzone=21,11 / fast_pskip=0 / chroma_qp_offset=-3 / threads=12 / lookahead_threads=3 / sliced_threads=0 / nr=0 / decimate=0 / interlaced=0 / bluray_compat=0 / constrained_intra=0 / bframes=11 / b_pyramid=2 / b_adapt=2 / b_bias=0 / direct=3 / weightb=1 / open_gop=0 / weightp=2 / keyint=250 / keyint_min=25 / scenecut=40 / intra_refresh=0 / rc=2pass / mbtree=0 / bitrate=1923 / ratetol=1.0 / qcomp=0.65 / qpmin=0 / qpmax=51 / qpstep=4 / cplxblur=20.0 / qblur=0.5 / ip_ratio=1.40 / pb_ratio=1.30 / aq=1:1.00
Language : English
Default : Yes
Forced : No
Color range : Limited
Color primaries : BT.601 PAL
Transfer characteristics : BT.470 System B, BT.470 System G
Matrix coefficients : BT.601
Audio
ID : 2
Format : AC-3
Format/Info : Audio Coding 3
Mode extension : CM (complete main)
Format settings, Endianness : Big
Codec ID : A_AC3
Duration : 1 h 35 min
Bit rate mode : Constant
Bit rate : 192 kb/s
Channel(s) : 2 channels
Channel positions : Front: L R
Sampling rate : 48.0 kHz
Frame rate : 31.250 FPS (1536 spf)
Compression mode : Lossy
Stream size : 131 MiB (9%)
Language : Russian
Default : Yes
Forced : No

[Цитировать]



Показать сообщения:    

Текущее время: 04-Дек 23:27

Часовой пояс: UTC + 3


Вы не можете начинать темы
Вы не можете отвечать на сообщения
Вы не можете редактировать свои сообщения
Вы не можете удалять свои сообщения
Вы не можете голосовать в опросах
Вы не можете прикреплять файлы к сообщениям
Вы не можете скачивать файлы

!ВНИМАНИЕ!
Сайт не предоставляет электронные версии произведений, а занимается лишь коллекционированием и каталогизацией ссылок, присылаемых и публикуемых на форуме нашими читателями. Если вы являетесь правообладателем какого-либо представленного материала и не желаете, чтобы ссылка на него находилась в нашем каталоге, свяжитесь с нами, и мы незамедлительно удалим ее. Файлы для обмена на трекере предоставлены пользователями сайта, и администрация не несет ответственности за их содержание. Просьба не заливать файлы, защищенные авторскими правами, а также файлы нелегального содержания!