[ Сегодня идет свободное скачивание без начисления Download ]


Статистика раздачи
Нет
 
   
 
Top  
 
 
-Смертельная гонка 3 / Death Race: Inferno [UNRATED] (2012) [1080p] BDRip- Русское название: Смертельная гонка 3
Оригинальное название: Death Race: Inferno
Год выпуска: 2012
Производство: США, Moonlighting Films South Africa
Жанр: Боевик, Триллер, Криминал
Перевод: Дублированный, Одноголосый закадровый, Двухголосый закадровый
Субтитры: Вшитые отключаемые
Язык субтитров: Русский (форсированные, полные), английский-Режиссер: Роэль Рейн / Roel Rein?
Продюсер: Пол У. С. Андерсон, Джереми Болт, Майк Эллиот
Актеры: Дэнни Трехо, Винг Реймз, Люк Госс, Дюгрэй Скотт, Танита Феникс, Робин Шоу, Фредерик Колер, Таня ван Граан, Шон Майкл, Лэнгли Кирквуд-Описание фильма:
Действие текущей картины происходит в ближайшем будущем, когда экономика США начнёт своё снижение и на страну обрушится волна насилия. Чтобы сдержать постоянно растущее уголовное население, создаются частные тюрьмы. Худшая из этих тюрем – Терминал Айленд, где заключенным приходится воевать с другими заключенными за свою жизнь в телевизионном шоу.
-Дата мировой премьеры: 22 января 2013
Дата выхода DVD релиза: 14 февраля 2013, «Двадцатый Век Фокс СНГ»
-Продолжительность: 01:45:12
Качество видео: BDRip 1080р
Видеокодек: MPEG-4 AVC/H.264
Видео: H.264 / [email protected] / 2 pass / 23,976 fps / 1920x1080p / 18850 kbps / 0.379
Аудио #1: Русский: DTS, 755 kb/s, 5.1 , 24 bit - |Дублированный, BD EUR|
Аудио #2: Русский: AC3, 448 kbps, 5.1, 16 bit - |Одноголосый (любительский) Kerob|
Аудио #3: Русский: AC3, 192 kbps, 2.0, 16 bit - |Двухголосый (любительский) Antasia & adrenal_in|
Аудио #4: Английский: DTS, 1510 kb/s, 5.1, 24 bit - оригинал

Рецензия, отзыв о фильме:

Все началось с Франкенштейном, с ним и закончится. (с)
Карл Лукас, рожденный гангстером, ставший заключенным, а теперь он монстр. (с)
Вот уж третьей части я никак не ожидала увидеть. И вроде поставив жирную точку в конце 2 части и все, расставив по местам, создатели фильма решила на этом не заканчивать историю о полюбившемся зрителям, как оказалось бессмертном Франкенштейне. На этот раз он действительно жив! Теперь действия фильма переносятся в Южную Африку, в пустыню Калахари. Согласно сделке, совершенной ранее ему остается выиграть одну гонку и получить столь желанную свободу для себя и своих друзей. Но, новый начальник, Нэйлас Уорк, не желает отказываться от столь выгодного бизнеса и отпускать фаворита зрителей Франкенштейна и устанавливает новые правила…

- Проиграешь — останешься в живых. Выиграешь — сдохнешь! (с).

«Смертельная гонка 3» славится еще большей жестокостью и драматизмом, чем первые две. Все начинается с так называемых, навигаторских женских боев без правил. Где из 16 останется 10 сильнейших, которые и будут сопровождать водителей на всей трассе. Зрелище получилось чрезмерно кровожадным и с пометкой не для слабонервных, еще бы столько девушек в мини, размахивающие неизвестным, лично мне, видом оружия, и все это действие сопровождается брызгами крови и восторженными криками мужчин заключенных. Это стоит посмотреть, ну а Катрин Бэнкс, выбранная быть девушкой Франкенштейна и здесь оказалось самой сильной и выносливой. Но, самое интересное еще впереди.
- Бойня вот — вот начнется. (с)
А впереди нас ждут захватывающие гонки на выживание, встреча, как с новыми, так и со старыми героями, кстати, среди новых есть даже первая женщина водитель Ольга Браун. Вдобавок ко всему, помимо открытых боев между собой, возникают еще схватки с местными жителями и военачальниками Калахари, что в свою очередь добавляет только пикантность ситуации.
На протяжении всего фильма нас радовали своей игрой все те же Люк Госс, как мне показалось, в этой части он стал играть более увереннее и раскованней. Дэнни Трехо, странно, но роль заключенного ему точно к лицу, видимо сказывается нелегкое прошлое. Заика Литс — Фредерик Коллер, он у меня вызывает исключительно улыбку на лице, особенно его походка. А также красотка Танит Феникс, Винг Реймз, и новичок в этой компании- Дюгрей Скот, в роли злодея.
Гонки выглядят более смотрибельней и динамичней, нежели во 2 части, режиссеры учли прошлые ошибки и делали акцент на дальних планах. К тому же здесь было на что посмотреть — это и безлюдная пустыня Африки и близлежащие деревни.
Но, все же самое интересное нас ждет в конце, а именно интрига, которая сохранялась на протяжении всего фильма и вот — гениальный финал. Вот это закрутили, такого я никак не ожидала. А финальные кадры хочется пересмотреть как минимум еще раз, чтобы полностью разобраться, что же произошло. В общем, смотрите — не пожалеете. Это достойное продолжение и видимо теперь окончательная точка этого динамичного, остросюжетного боевика про адские гонки.
- Участники, осужденные преступники. Не пытайтесь повторить это дома! (с)
Как будто кому то может придти это в голову?
Так как я была уверена в другом исходе, больше 8 баллов ставить и не думала, но, досмотрев до конца, с уверенностью ставлю 10 из 10!

MediaInfo

Общее
Уникальный идентификатор : 196310917452201555359969920845624957113 (0x93B01B80BCDEEEFC82355C5872D4D8B9)
Полное имя : D:\Video\NewMovies\Death.Race.3.Inferno.2013.Unrated.Extended.Cut.BDRip.1080p.dts.ac3.rus.mkv
Формат : Matroska
Версия формата : Version 2
Размер файла : 16,0 Гбайт
Продолжительность : 1 ч. 45 м.
Общий поток : 21,8 Мбит/сек
Название фильма : Death Race 3.Inferno (2013) [Unrated Extended Cut] by VarMkn
Дата кодирования : UTC 2013-02-05 10:14:09
Программа кодирования : mkvmerge v5.4.0 ('Piper') built on Mar 10 2012 13:34:39
Библиотека кодирования : libebml v1.2.3 + libmatroska v1.3.0
Видео
Идентификатор : 1
Формат : AVC
Формат/Информация : Advanced Video Codec
Профиль формата : [email protected]
Параметр CABAC формата : Да
Параметр ReFrames формата : 4 кадра
Идентификатор кодека : V_MPEG4/ISO/AVC
Продолжительность : 1 ч. 45 м.
Битрейт : 18,9 Мбит/сек
Ширина : 1920 пикселей
Высота : 1080 пикселей
Соотношение сторон : 16:9
Частота кадров : 23,976 кадра/сек
Цветовое пространство : YUV
Субдискретизация насыщенности : 4:2:0
Битовая глубина : 8 бит
Тип развёртки : Прогрессивная
Бит/(Пиксели*Кадры) : 0.379
Размер потока : 13,5 Гбайт (85%)
Заголовок : Death Race 3.Inferno (2013) [Unrated Extended Cut]
Библиотека кодирования : x264 core 129 r2230 1cffe9f
Настройки программы : cabac=1 / ref=4 / deblock=1:-3:-3 / analyse=0x3:0x113 / me=tesa / subme=11 / psy=1 / psy_rd=1.07:0.02 / mixed_ref=1 / me_range=24 / chroma_me=1 / trellis=2 / 8x8dct=1 / cqm=0 / deadzone=21,11 / fast_pskip=1 / chroma_qp_offset=-3 / threads=12 / lookahead_threads=2 / sliced_threads=0 / nr=0 / decimate=1 / interlaced=0 / bluray_compat=0 / constrained_intra=0 / bframes=8 / b_pyramid=2 / b_adapt=2 / b_bias=0 / direct=3 / weightb=1 / open_gop=0 / weightp=2 / keyint=240 / keyint_min=23 / scenecut=40 / intra_refresh=0 / rc=2pass / mbtree=0 / bitrate=18850 / ratetol=1.0 / qcomp=0.60 / qpmin=10 / qpmax=69 / qpstep=4 / cplxblur=20.0 / qblur=0.5 / ip_ratio=1.40 / pb_ratio=1.30 / aq=2:0.60
Язык : English
Default : Да
Forced : Нет
Аудио #1
Идентификатор : 2
Формат : DTS
Формат/Информация : Digital Theater Systems
Идентификатор кодека : A_DTS
Продолжительность : 1 ч. 45 м.
Вид битрейта : Постоянный
Битрейт : 755 Кбит/сек
Каналы : 6 каналов
Расположение каналов : Front: L C R, Side: L R, LFE
Частота : 48,0 КГц
Битовая глубина : 24 бит
Метод сжатия : С потерями
Размер потока : 568 Мбайт (3%)
Заголовок : Russian DTS 5.1 @ 768 kbps - Dub, BD EUR
Язык : Russian
Default : Да
Forced : Нет
Аудио #2
Идентификатор : 3
Формат : AC-3
Формат/Информация : Audio Coding 3
Расширение режима : CM (complete main)
Идентификатор кодека : A_AC3
Продолжительность : 1 ч. 45 м.
Вид битрейта : Постоянный
Битрейт : 448 Кбит/сек
Каналы : 6 каналов
Расположение каналов : Front: L C R, Side: L R, LFE
Частота : 48,0 КГц
Битовая глубина : 16 бит
Метод сжатия : С потерями
Размер потока : 337 Мбайт (2%)
Заголовок : Russian - Kerob - VO
Язык : Russian
Default : Нет
Forced : Нет
Аудио #3
Идентификатор : 4
Формат : AC-3
Формат/Информация : Audio Coding 3
Расширение режима : CM (complete main)
Идентификатор кодека : A_AC3
Продолжительность : 1 ч. 45 м.
Вид битрейта : Постоянный
Битрейт : 192 Кбит/сек
Каналы : 2 канала
Расположение каналов : Front: L R
Частота : 48,0 КГц
Битовая глубина : 16 бит
Метод сжатия : С потерями
Размер потока : 144 Мбайт (1%)
Заголовок : Russian - Antasia & adrenal_in - DVO
Язык : Russian
Default : Нет
Forced : Нет
Аудио #4
Идентификатор : 5
Формат : DTS
Формат/Информация : Digital Theater Systems
Идентификатор кодека : A_DTS
Продолжительность : 1 ч. 45 м.
Вид битрейта : Постоянный
Битрейт : 1510 Кбит/сек
Каналы : 6 каналов
Расположение каналов : Front: L C R, Side: L R, LFE
Частота : 48,0 КГц
Битовая глубина : 24 бит
Метод сжатия : С потерями
Размер потока : 1,11 Гбайт (7%)
Заголовок : English Original DTS 1536
Язык : English
Default : Нет
Forced : Нет
Текст #1
Идентификатор : 6
Формат : UTF-8
Идентификатор кодека : S_TEXT/UTF8
Идентификатор кодека/Информация : UTF-8 Plain Text
Заголовок : Russian Forced
Язык : Russian
Default : Нет
Forced : Нет
Текст #2
Идентификатор : 7
Формат : UTF-8
Идентификатор кодека : S_TEXT/UTF8
Идентификатор кодека/Информация : UTF-8 Plain Text
Заголовок : Russian Full
Язык : Russian
Default : Нет
Forced : Нет
Текст #3
Идентификатор : 8
Формат : UTF-8
Идентификатор кодека : S_TEXT/UTF8
Идентификатор кодека/Информация : UTF-8 Plain Text
Заголовок : English Full
Язык : English
Default : Нет
Forced : Нет
Скриншоты:

Время раздачи: с 10:00 до 20:00 - до 15 скачавшихНе забываем говорить

[Цитировать]

Топик был перенесен из форума Новинки кинопроката (HD Video) в форум Зарубежное кино (HD Video)
Bootch



Показать сообщения:    

Текущее время: 05-Дек 01:30

Часовой пояс: UTC + 3


Вы не можете начинать темы
Вы не можете отвечать на сообщения
Вы не можете редактировать свои сообщения
Вы не можете удалять свои сообщения
Вы не можете голосовать в опросах
Вы не можете прикреплять файлы к сообщениям
Вы не можете скачивать файлы

!ВНИМАНИЕ!
Сайт не предоставляет электронные версии произведений, а занимается лишь коллекционированием и каталогизацией ссылок, присылаемых и публикуемых на форуме нашими читателями. Если вы являетесь правообладателем какого-либо представленного материала и не желаете, чтобы ссылка на него находилась в нашем каталоге, свяжитесь с нами, и мы незамедлительно удалим ее. Файлы для обмена на трекере предоставлены пользователями сайта, и администрация не несет ответственности за их содержание. Просьба не заливать файлы, защищенные авторскими правами, а также файлы нелегального содержания!