[ Сегодня идет свободное скачивание без начисления Download ]


Статистика раздачи
Скачал: [ 2 ]
 
   
 
Top  
 
 
Константин Артемьев | Таргетинг от А до Я (Версия 3.0) (2016) PCRec - Автор (режиссер): Константин Артемьев
Жанр: Тренинг
Описание:
Что самое главное в инфобизнесе? (да и в любом другом бизнесе)
- Конечно же, чтобы клиентов было побольше!
Мы решили обновить версию нашего легендартного интенсива по настройке таргетированной рекламы, т.к. технологии, нюансы и хитрости настройки за это время очень сильно поменялись.
На этом интенсиве-воркшопе Вы не просто узнаете все новые фишки и секреты...
Вы в прямом эфире вместе с нами по шагам просто и легко настроете себе таргетированную рекламу ВКонтакте, Фейсбук, Инстаграм и ОдноКлассниках, чтобы клиентов у Вас было столько, сколько Вам нужно!
Этот интенсив будет БЕЗ водянистой воды. Только конкретика и по делу.
Хотите раз и навсегда закрыть для себя вопрос с привлечением клиентов? - Тогда этот интенсив для Вас!
Новые фишки, кейсы и секреты 2016 года!
Продолжительность: 07:59:10
Качество видео: PCRec
Видео: AVC/H.264, 1280x720, ~343 kbps
Аудио: AAC, 2 ch, 126 kbps

Mediainfo:

Общее
Полное имя : С:\targeting\Интенсив по Таргетингу 3.0.mp4
Формат : MPEG-4
Профиль формата : Base Media / Version 2
Идентификатор кодека : mp42 (isom/mp42)
Размер файла : 1,58 Гбайт
Продолжительность : 7 ч. 59 м.
Режим общего битрейта : Переменный
Общий поток : 473 Кбит/сек
Дата кодирования : UTC 2016-06-19 19:08:06
Дата пометки : UTC 2016-06-19 19:08:06
gsst : 0
gstd : 28749554
Видео
Идентификатор : 1
Формат : AVC
Формат/Информация : Advanced Video Codec
Профиль формата : Main@L3.1
Параметр CABAC формата : Да
Параметр ReFrames формата : 3 кадра
Идентификатор кодека : avc1
Идентификатор кодека/Информация : Advanced Video Coding
Продолжительность : 7 ч. 59 м.
Битрейт : 343 Кбит/сек
Ширина : 1280 пикселей
Высота : 720 пикселей
Соотношение сторон : 16:9
Режим частоты кадров : Постоянный
Частота кадров : 30,000 кадров/сек
Цветовое пространство : YUV
Субдискретизация насыщенности : 4:2:0
Битовая глубина : 8 бит
Тип развёртки : Прогрессивная
Бит/(Пиксели*Кадры) : 0.012
Размер потока : 1,15 Гбайт (73%)
Заголовок : ISO Media file produced by Google Inc.
Дата кодирования : UTC 2016-06-19 19:08:06
Дата пометки : UTC 2016-06-19 19:08:06
Цветовой диапазон : Limited
Основные цвета : BT.709
Характеристики трансфера : BT.709
Коэффициенты матрицы : BT.709
Аудио
Идентификатор : 2
Формат : AAC
Формат/Информация : Advanced Audio Codec
Профиль формата : LC
Идентификатор кодека : 40
Продолжительность : 7 ч. 59 м.
Вид битрейта : Переменный
Битрейт : 126 Кбит/сек
Каналы : 2 канала
Расположение каналов : Front: L R
Частота : 44,1 КГц
Частота кадров : 43,066 кадра/сек (1024 spf)
Метод сжатия : С потерями
Размер потока : 430 Мбайт (27%)
Заголовок : ISO Media file produced by Google Inc.
Дата кодирования : UTC 2016-06-19 19:08:06
Дата пометки : UTC 2016-06-19 19:08:06

Дополнительная информация:

Программа интенсива:
-Пошаговая настройка таргетированной рекламы ВКонтакте
-Пошаговая настройка рекламы в Фейсбук и Инстаграм
-Очень дешевая реклама в Одноклассниках
-Продвинутые сервисы для таргетированной рекламы
-Подробный разбор настройки рекламы по вашим темам и нишам с конкретными рекомендациями и ответами на вопрос!
Бонусы:
-21 полезный сервис для инфобизнеса.PDF
-31 шаг к инфобизнесу вашей мечты.PDF
-Богатые премиум клиенты в инфобизнесе.PDF
-Инфобизнес с нуля и до результата.PDF
-План продающей консультации.PDF
-Скрипт письма тренеру для приглашения его к сотрудничеству.PDF
-Структура копирайтинга продающего сайта.PDF
-Быстрые деньги в инфобизнесе - 10 тысяч рублей за 24 часа.MP4
-Жесткий Разбор с Константином Артемьевым.MP4
-Интенсив Артемьева по коучингу, консалтингу.MP4
-Клиент за 5 минут - Бесплатный способ рекламы вконтакте.MP4
-Обзор 17 рекламных каналов для интернет бизнеса.MP4
Скриншоты:

[Цитировать]



Показать сообщения:    

Текущее время: 08-Дек 23:08

Часовой пояс: UTC + 3


Вы не можете начинать темы
Вы не можете отвечать на сообщения
Вы не можете редактировать свои сообщения
Вы не можете удалять свои сообщения
Вы не можете голосовать в опросах
Вы не можете прикреплять файлы к сообщениям
Вы не можете скачивать файлы

!ВНИМАНИЕ!
Сайт не предоставляет электронные версии произведений, а занимается лишь коллекционированием и каталогизацией ссылок, присылаемых и публикуемых на форуме нашими читателями. Если вы являетесь правообладателем какого-либо представленного материала и не желаете, чтобы ссылка на него находилась в нашем каталоге, свяжитесь с нами, и мы незамедлительно удалим ее. Файлы для обмена на трекере предоставлены пользователями сайта, и администрация не несет ответственности за их содержание. Просьба не заливать файлы, защищенные авторскими правами, а также файлы нелегального содержания!