[ Today is free to download without increasing Download ]

DL-List and Torrent activity
Complete: [ 1 ]
День независимости: Возрождение / Independence Day: Resurgence (2016) WEBRip 720p | D | Line - Производство: США | 20th Century Fox Film Corporation
Жанр: Фантастика, Боевик, Приключения
Режиссер: Роланд Эммерих
Продюсер: Дин Девлин, Роланд Эммерих, Харальд Клозер
Актеры: Лиам Хемсворт, Джефф Голдблюм, Джесси Ашер, Билл Пуллман, Майка Монро, Села Уорд, Уильям Фихтнер, Джадд Хёрш, Брент Спайнер, Патрик Ст. Эсприт
Используя инопланетные технологии, жители Земли создали специальную программу по защите планеты. Но ничего не может нас спасти от нового, еще более разрушительного и масштабного инопланетного вторжения — только смелость нескольких героев, которые единственные могут спасти наш мир от уничтожения.

Возраст: 12+ (зрителям, достигшим 12 лет)
Рейтинг MPAA: PG-13 (детям до 13 лет просмотр нежелателен)
Дата мировой премьеры: 20 июня 2016
Дата российской премьеры: 23 июня 2016, «Двадцатый Век Фокс СНГ»
Продолжительность: 01:58:08
Качество видео: WEBRip
Перевод: Дублированный (чистый звук)
Вид субтитров: Вшитые неотключаемые
Язык субтитров: корейский
Реклама: Присутствуют голосовые и текстовые вставки.
Видео: AVC/H.264, 1280x720 (16:9), 29.970 fps, 4 076 Kbps (0.148 bit/pixel)
Аудио: AC-3, 48.0 KHz, 2 ch, 384 Kbps, CBR


Complete name : \Independence.Day.Resurgence.(2016).WEBRip.720p-LQ.mkv
Format : Matroska
Format version : Version 2
File size : 3.76 GiB
Duration : 1h 58mn
Overall bit rate mode : Constant
Overall bit rate : 4 551 Kbps
Movie name : Independence Day: Resurgence (2016)
Encoded date : UTC 2016-08-20 09:55:32
Writing application : mkvmerge v5.8.0 ('No Sleep / Pillow') built on Sep 2 2012 15:37:04
Writing library : libebml v1.2.3 + libmatroska v1.3.0
ID : 1
Format : AVC
Format/Info : Advanced Video Codec
Format profile : High@L4.1
Format settings, CABAC : Yes
Format settings, ReFrames : 9 frames
Duration : 1h 58mn
Bit rate mode : Constant
Bit rate : 4 076 Kbps
Nominal bit rate : 4 500 Kbps
Width : 1 280 pixels
Height : 720 pixels
Display aspect ratio : 16:9
Frame rate mode : Constant
Frame rate : 29.970 fps
Standard : Component
Color space : YUV
Chroma subsampling : 4:2:0
Bit depth : 8 bits
Scan type : Progressive
Bits/(Pixel*Frame) : 0.148
Stream size : 3.36 GiB (90%)
Language : English
Default : Yes
Forced : No
Color primaries : BT.709
Transfer characteristics : BT.709
Matrix coefficients : BT.709
ID : 2
Format : AC-3
Format/Info : Audio Coding 3
Mode extension : CM (complete main)
Format settings, Endianness : Big
Codec ID : A_AC3
Duration : 1h 58mn
Bit rate mode : Constant
Bit rate : 384 Kbps
Channel(s) : 2 channels
Channel positions : Front: L R
Sampling rate : 48.0 KHz
Bit depth : 16 bits
Compression mode : Lossy
Delay relative to video : 8ms
Stream size : 324 MiB (8%)
Title : (LINE)
Language : Russian
Default : Yes
Forced : No


Display posts:    

Current time is: 23-Oct 00:33

All times are UTC + 3

You cannot post new topics in this forum
You cannot reply to topics in this forum
You cannot edit your posts in this forum
You cannot delete your posts in this forum
You cannot vote in polls in this forum
You cannot attach files in this forum
You cannot download files in this forum

The site does not give electronic versions of products, and is engaged only in a collecting and cataloguing of the references sent and published at a forum by our readers. If you are the legal owner of any submitted material and do not wish that the reference to it was in our catalogue, contact us and we shall immediately remove her. Files for an exchange on tracker are given by users of a site, and the administration does not bear the responsibility for their maintenance. The request to not fill in the files protected by copyrights, and also files of the illegal maintenance!