[ Сегодня идет свободное скачивание без начисления Download ]


Статистика раздачи
Качаю: [ 1 ]
Скачал: [ 1 ]
 
   
 
Top  
 
 
Иллюзия обмана 2 / Now You See Me 2 (2016) BDRip [H.264/720p] [hand made 60fps]«Вы еще ничего не видели»- Производство: США, Китай, Великобритания, Канада / Lionsgate, Summit Entertainment
Жанр: боевик, триллер, комедия, криминал, детектив, приключения
Режиссер: Джон М. Чу
Продюсер: Бобби Коэн, Алекс Куртцман, Роберто Орси
Актеры: Джесси Айзенберг, Лиззи Каплан, Дэниэл Рэдклифф, Марк Руффало, Морган Фримен, Майкл Кейн, Вуди Харрельсон, Дэйв Франко, Санаа Лэтэн
Описание:
«Четыре всадника», команда лучших иллюзионистов мира, снова в сборе! Их «магия» стала еще совершеннее, а враги — опаснее. На сей раз им предстоит спасти свою репутацию и вывести на чистую воду жестокого техномагната…

Возраст: 12+ (зрителям, достигшим 12 лет)
Рейтинг MPAA: PG-13 (детям до 13 лет просмотр нежелателен)
Дата мировой премьеры: 2 июня 2016
Дата премьеры в России: 9 июня 2016, «Централ Партнершип»
Автор рипа: ollan
Продолжительность: 02:09:30
Качество: BDRip 720p-LQ
Перевод: Дублированный (Лицензия)
Cубтитры: Отсутствуют
Видео: AVC/H.264, 1280x720p, (16:9), 4 554 kb/s, 60,000 fps
Аудио: AC3, 6 ch, 640 kbps - Русский

Mediainfo:

General
Unique ID : 222456980671953694388058524571988712114 (0xA75BA7F2546BB1E78E17C92A6E54DAB2)
Complete name : E:\Video\60 fps\Иллюзия обмана 2\Now You See Me 2 (2016) BDRip 720p Rus 60fps.mkv
Format : Matroska
Format version : Version 4 / Version 2
File size : 4.70 GiB
Duration : 2 h 9 min
Overall bit rate : 5 198 kb/s
Encoded date : UTC 2016-08-20 03:00:31
Writing application : mkvmerge v7.7.0 ('Six Voices') 64bit built on Feb 28 2015 23:39:33
Writing library : libebml v1.3.1 + libmatroska v1.4.2
Video
ID : 1
Format : AVC
Format/Info : Advanced Video Codec
Format profile : [email protected]
Format settings, CABAC : Yes
Format settings, ReFrames : 5 frames
Codec ID : V_MPEG4/ISO/AVC
Duration : 2 h 9 min
Bit rate : 4 554 kb/s
Width : 1 280 pixels
Height : 720 pixels
Display aspect ratio : 16:9
Frame rate mode : Constant
Frame rate : 60.000 FPS
Color space : YUV
Chroma subsampling : 4:2:0
Bit depth : 8 bits
Scan type : Progressive
Bits/(Pixel*Frame) : 0.082
Stream size : 4.12 GiB (88%)
Title : Rip by izomsk
Writing library : x264 core 148 r2638 7599210
Encoding settings : cabac=1 / ref=5 / deblock=1:-3:-3 / analyse=0x3:0x113 / me=umh / subme=10 / psy=1 / psy_rd=1.00:0.00 / mixed_ref=1 / me_range=32 / chroma_me=1 / trellis=2 / 8x8dct=1 / cqm=0 / deadzone=21,11 / fast_pskip=1 / chroma_qp_offset=-2 / threads=6 / lookahead_threads=1 / sliced_threads=0 / nr=0 / decimate=1 / interlaced=0 / bluray_compat=0 / constrained_intra=0 / bframes=7 / b_pyramid=2 / b_adapt=2 / b_bias=0 / direct=1 / weightb=1 / open_gop=0 / weightp=2 / keyint=1438 / keyint_min=95 / scenecut=40 / intra_refresh=0 / rc_lookahead=40 / rc=crf / mbtree=1 / crf=17.0 / qcomp=0.60 / qpmin=0 / qpmax=69 / qpstep=4 / vbv_maxrate=62500 / vbv_bufsize=78125 / crf_max=0.0 / nal_hrd=none / filler=0 / ip_ratio=1.40 / aq=1:1.00
Language : English
Default : Yes
Forced : No
Audio
ID : 2
Format : AC-3
Format/Info : Audio Coding 3
Mode extension : CM (complete main)
Format settings, Endianness : Big
Codec ID : A_AC3
Duration : 2 h 9 min
Bit rate mode : Constant
Bit rate : 640 kb/s
Channel(s) : 6 channels
Channel positions : Front: L C R, Side: L R, LFE
Sampling rate : 48.0 kHz
Frame rate : 31.250 FPS (1536 spf)
Compression mode : Lossy
Stream size : 593 MiB (12%)
Title : Дубляж, Blu-ray
Language : Russian
Default : Yes
Forced : No
Скриншоты:

[Цитировать]

4 554 kb puke

[Цитировать]



Показать сообщения:    

Текущее время: 05-Дек 01:30

Часовой пояс: UTC + 3


Вы не можете начинать темы
Вы не можете отвечать на сообщения
Вы не можете редактировать свои сообщения
Вы не можете удалять свои сообщения
Вы не можете голосовать в опросах
Вы не можете прикреплять файлы к сообщениям
Вы не можете скачивать файлы

!ВНИМАНИЕ!
Сайт не предоставляет электронные версии произведений, а занимается лишь коллекционированием и каталогизацией ссылок, присылаемых и публикуемых на форуме нашими читателями. Если вы являетесь правообладателем какого-либо представленного материала и не желаете, чтобы ссылка на него находилась в нашем каталоге, свяжитесь с нами, и мы незамедлительно удалим ее. Файлы для обмена на трекере предоставлены пользователями сайта, и администрация не несет ответственности за их содержание. Просьба не заливать файлы, защищенные авторскими правами, а также файлы нелегального содержания!