[ Сегодня идет свободное скачивание без начисления Download ]


Статистика раздачи
Нет
 
   
 
Top  
 
 
-Беглец / The Fugitive (1993) BDRemux- Русское название: Беглец
Оригинальное название: The Fugitive
Год выпуска: 1993
Жанр: Боевик, Криминал, Триллер
Описание фильма:
Убитая жена. Однорукий мужчина. Одержимый детектив. Преследование начинается. Доктор Ричард Кимбл, чикагский хирург, ложно обвинен в убийстве своей жены.
Полный решимости доказать свою невиновность, доктор совершает побег из тюрьмы. Он хочет сам привести своих преследователей - служителей закона - к настоящему убийце. Фильм снят по мотивам популярного американского телесериала 60-х годов.
Режиссер: Эндрю Дэвис / Andrew Davis
Актеры: Харрисон Форд (Dr. Richard Kimble), Томми Ли Джонс (Samuel Gerard), Джо Пантольяно (Cosmo Renfro), Ерун Краббе (Dr. Charles Nichols), Сила Уорд (Helen Kimble), Джулианна Мур (Dr. Anne Eastman), Андреас Кацулас (Sykes), Дэниэл Робак (Biggs), Л. Скотт Колдуэлл (Poole), Том Вуд (Newman), Рон Дин (Detective Kelly), Джозеф Ф. Косала (Detective Rosetti)
Продолжительность: 02:10:15
Перевод: Профессиональный (многоголосый, закадровый), Профессиональный (полное дублирование), Авторский (одноголосый)
Субтитры: английские, русские
Оригинальная аудиодорожка: английский

Дата мировой премьеры: 6 августа 1993
Дата выхода DVD релиза: 24 февраля 2011
Качество: BDRemux 1080p
Контейнер: MKV
Видео: MPEG-2 Video, 1920x1080 (16:9), 20727 kbps, 23,976 fps
Аудио 1: английский / AC3 / 5.1 / 48 kHz / 640 kbps
Аудио 2: русский / AC3 / 5.1 / 48 kHz / 384 kbps Dub Мост-Видео
Аудио 3: русский / AC3 / 2.0 / 48 kHz / 192 kbps Dub Варус Видео
Аудио 4: русский / AC3 / 2.0 / 48 kHz / 192 kbps MVO НТВ+
Аудио 5: русский / AC3 / 2.0 / 48 kHz / 224 kbps MVO TV1000
Аудио 6: русский / AC3 / 2.0 / 48 kHz / 192 kbps MVO ОРТ
Аудио 7: русский / AC3 / 5.1 / 48 kHz / 640 kbps AVO Гаврилов
Аудио 8: русский / AC3 / 5.1 / 48 kHz / 640 kbps AVO Живов
Аудио 9: русский / AC3 / 5.1 / 48 kHz / 448 kbps AVO Горчаков
Аудио 10: русский / AC3 / 2.0 / 48 kHz / 128 kbps AVO Володарский
Аудио 11: русский / AC3 / 2.0 / 48 kHz / 192 kbps AVO диктор CDV
Формат субтитров: prerendered (Blu-ray/PGS/SUP), softsub (SRT)
Навигация по главам: есть
Ранее аналогичные релизы

MediaInfo:

Общее
Уникальный идентификатор : 199163092809113117644293664091617259801 (0x95D56A9AE155B0A1A7A427A987D27119)
Полное имя : D:\ РАЗДАЧА\Беглец\Беглец.mkv
Формат : Matroska
Версия формата : Version 2
Размер файла : 22,4 Гбайт
Продолжительность : 2 ч. 10 м.
Режим общего битрейта : Переменный
Общий поток : 24,6 Мбит/сек
Дата кодирования : UTC 2012-11-10 17:34:21
Программа кодирования : mkvmerge v5.7.0 ('The Whirlwind') built on Jul 8 2012 20:08:51
Библиотека кодирования : libebml v1.2.3 + libmatroska v1.3.0
Видео
Идентификатор : 1
Формат : MPEG Video
Версия формата : Version 2
Профиль формата : Main@High
Параметр BVOP формата : Нет
Параметр матрицы формата : Выборочная
Идентификатор кодека : V_MPEG2
Идентификатор кодека/Информация : MPEG 1 or 2 Video
Продолжительность : 2 ч. 10 м.
Вид битрейта : Переменный
Битрейт : 20,3 Мбит/сек
Максимальный битрейт : 30,0 Мбит/сек
Ширина : 1920 пикселей
Высота : 1080 пикселей
Соотношение сторон : 16:9
Режим частоты кадров : Постоянный
Частота кадров : 23,976 кадра/сек
Цветовое пространство : YUV
Субдискретизация насыщенности : 4:2:0
Битовая глубина : 8 бит
Тип развёртки : Прогрессивная
Метод сжатия : С потерями
Бит/(Пиксели*Кадры) : 0.408
Размер потока : 18,4 Гбайт (82%)
Default : Нет
Forced : Нет
Аудио #1
Идентификатор : 2
Формат : AC-3
Формат/Информация : Audio Coding 3
Расширение режима : CM (complete main)
Параметр Endianness формата : Big
Идентификатор кодека : A_AC3
Продолжительность : 2 ч. 10 м.
Вид битрейта : Постоянный
Битрейт : 640 Кбит/сек
Каналы : 6 каналов
Расположение каналов : Front: L C R, Side: L R, LFE
Частота : 48,0 КГц
Битовая глубина : 16 бит
Метод сжатия : С потерями
Размер потока : 596 Мбайт (3%)
Язык : English
Default : Нет
Forced : Нет
Аудио #2
Идентификатор : 3
Формат : AC-3
Формат/Информация : Audio Coding 3
Расширение режима : CM (complete main)
Параметр Endianness формата : Big
Идентификатор кодека : A_AC3
Продолжительность : 2 ч. 10 м.
Вид битрейта : Постоянный
Битрейт : 384 Кбит/сек
Каналы : 6 каналов
Расположение каналов : Front: L C R, Side: L R, LFE
Частота : 48,0 КГц
Битовая глубина : 16 бит
Метод сжатия : С потерями
Размер потока : 358 Мбайт (2%)
Заголовок : Dub Мост-Видео
Язык : Russian
Default : Нет
Forced : Нет
Аудио #3
Идентификатор : 4
Формат : AC-3
Формат/Информация : Audio Coding 3
Расширение режима : CM (complete main)
Параметр Endianness формата : Big
Идентификатор кодека : A_AC3
Продолжительность : 2 ч. 10 м.
Вид битрейта : Постоянный
Битрейт : 192 Кбит/сек
Каналы : 2 канала
Расположение каналов : Front: L R
Частота : 48,0 КГц
Битовая глубина : 16 бит
Метод сжатия : С потерями
Размер потока : 179 Мбайт (1%)
Заголовок : Dub Варус Видео
Язык : Russian
Default : Нет
Forced : Нет
Аудио #4
Идентификатор : 5
Формат : AC-3
Формат/Информация : Audio Coding 3
Расширение режима : CM (complete main)
Параметр Endianness формата : Big
Идентификатор кодека : A_AC3
Продолжительность : 2 ч. 10 м.
Вид битрейта : Постоянный
Битрейт : 192 Кбит/сек
Каналы : 2 канала
Расположение каналов : Front: L R
Частота : 48,0 КГц
Битовая глубина : 16 бит
Метод сжатия : С потерями
Размер потока : 179 Мбайт (1%)
Заголовок : MVO НТВ+
Язык : Russian
Default : Нет
Forced : Нет
Аудио #5
Идентификатор : 6
Формат : AC-3
Формат/Информация : Audio Coding 3
Расширение режима : CM (complete main)
Параметр Endianness формата : Big
Идентификатор кодека : A_AC3
Продолжительность : 2 ч. 10 м.
Вид битрейта : Постоянный
Битрейт : 224 Кбит/сек
Каналы : 2 канала
Расположение каналов : Front: L R
Частота : 48,0 КГц
Битовая глубина : 16 бит
Метод сжатия : С потерями
Размер потока : 209 Мбайт (1%)
Заголовок : MVO TV1000
Язык : Russian
Default : Нет
Forced : Нет
Аудио #6
Идентификатор : 7
Формат : AC-3
Формат/Информация : Audio Coding 3
Расширение режима : CM (complete main)
Параметр Endianness формата : Big
Идентификатор кодека : A_AC3
Продолжительность : 2 ч. 10 м.
Вид битрейта : Постоянный
Битрейт : 192 Кбит/сек
Каналы : 2 канала
Расположение каналов : Front: L R
Частота : 48,0 КГц
Битовая глубина : 16 бит
Метод сжатия : С потерями
Размер потока : 179 Мбайт (1%)
Заголовок : MVO ОРТ
Язык : Russian
Default : Нет
Forced : Нет
Аудио #7
Идентификатор : 8
Формат : AC-3
Формат/Информация : Audio Coding 3
Расширение режима : CM (complete main)
Параметр Endianness формата : Big
Идентификатор кодека : A_AC3
Продолжительность : 2 ч. 10 м.
Вид битрейта : Постоянный
Битрейт : 640 Кбит/сек
Каналы : 6 каналов
Расположение каналов : Front: L C R, Side: L R, LFE
Частота : 48,0 КГц
Битовая глубина : 16 бит
Метод сжатия : С потерями
Размер потока : 596 Мбайт (3%)
Заголовок : AVO Гаврилов
Язык : Russian
Default : Нет
Forced : Нет
Аудио #8
Идентификатор : 9
Формат : AC-3
Формат/Информация : Audio Coding 3
Расширение режима : CM (complete main)
Параметр Endianness формата : Big
Идентификатор кодека : A_AC3
Продолжительность : 2 ч. 10 м.
Вид битрейта : Постоянный
Битрейт : 640 Кбит/сек
Каналы : 6 каналов
Расположение каналов : Front: L C R, Side: L R, LFE
Частота : 48,0 КГц
Битовая глубина : 16 бит
Метод сжатия : С потерями
Размер потока : 596 Мбайт (3%)
Заголовок : AVO Живов
Язык : Russian
Default : Нет
Forced : Нет
Аудио #9
Идентификатор : 10
Формат : AC-3
Формат/Информация : Audio Coding 3
Расширение режима : CM (complete main)
Параметр Endianness формата : Big
Идентификатор кодека : A_AC3
Продолжительность : 2 ч. 10 м.
Вид битрейта : Постоянный
Битрейт : 448 Кбит/сек
Каналы : 6 каналов
Расположение каналов : Front: L C R, Side: L R, LFE
Частота : 48,0 КГц
Битовая глубина : 16 бит
Метод сжатия : С потерями
Размер потока : 417 Мбайт (2%)
Заголовок : AVO Горчаков
Язык : Russian
Default : Нет
Forced : Нет
Аудио #10
Идентификатор : 11
Формат : AC-3
Формат/Информация : Audio Coding 3
Расширение режима : CM (complete main)
Параметр Endianness формата : Big
Идентификатор кодека : A_AC3
Продолжительность : 2 ч. 10 м.
Вид битрейта : Постоянный
Битрейт : 128 Кбит/сек
Каналы : 2 канала
Расположение каналов : Front: L R
Частота : 48,0 КГц
Битовая глубина : 16 бит
Метод сжатия : С потерями
Размер потока : 119 Мбайт (1%)
Заголовок : AVO Володарский
Язык : Russian
Default : Нет
Forced : Нет
Аудио #11
Идентификатор : 12
Формат : AC-3
Формат/Информация : Audio Coding 3
Расширение режима : CM (complete main)
Параметр Endianness формата : Big
Идентификатор кодека : A_AC3
Продолжительность : 2 ч. 10 м.
Вид битрейта : Постоянный
Битрейт : 192 Кбит/сек
Каналы : 2 канала
Расположение каналов : Front: L R
Частота : 48,0 КГц
Битовая глубина : 16 бит
Метод сжатия : С потерями
Размер потока : 179 Мбайт (1%)
Заголовок : AVO диктор CDV
Язык : Russian
Default : Нет
Forced : Нет
Текст #1
Идентификатор : 13
Формат : PGS
Режим смешивания : zlib
Идентификатор кодека : S_HDMV/PGS
Идентификатор кодека/Информация : The same subtitle format used on BDs/HD-DVDs
Заголовок : PGS
Язык : English
Default : Нет
Forced : Нет
Текст #2
Идентификатор : 14
Формат : PGS
Режим смешивания : zlib
Идентификатор кодека : S_HDMV/PGS
Идентификатор кодека/Информация : The same subtitle format used on BDs/HD-DVDs
Заголовок : PGS SDH
Язык : English
Default : Нет
Forced : Нет
Текст #3
Идентификатор : 15
Формат : UTF-8
Идентификатор кодека : S_TEXT/UTF8
Идентификатор кодека/Информация : UTF-8 Plain Text
Язык : English
Default : Нет
Forced : Нет
Текст #4
Идентификатор : 16
Формат : UTF-8
Идентификатор кодека : S_TEXT/UTF8
Идентификатор кодека/Информация : UTF-8 Plain Text
Язык : Russian
Default : Нет
Forced : Нет
Меню
00:00:00.000 : en:Murder Most Brutal
00:04:49.414 : en:Interrogation: "You Find This Man!"
00:09:38.911 : en:Trial and Sentencing
00:12:57.735 : en:The Bus to Menard
00:14:49.555 : en:Out of Control
00:16:34.702 : en:Train Coming
00:18:52.297 : en:"Just Don't Follow Me"
00:20:19.968 : en:Gerard Takes Charge
00:23:08.261 : en:"Your Fugitive's Name Is Dr. Richard Kimble"
00:25:34.032 : en:Teamwork
00:26:29.588 : en:"Every Time I Look in the Mirror, Pal"
00:29:46.284 : en:Instant Diagnosis
00:31:25.717 : en:Overheard Pursuit
00:34:21.934 : en:Underground Pursuit
00:36:44.952 : en:"I Didn't Kill My Wife"
00:38:02.571 : en:Taking the Plunge
00:39:41.754 : en:River Search
00:42:18.869 : en:Bad Dreams; a New Look
00:45:34.732 : en:Raid on Copeland's House
00:48:35.037 : en:"I Don't Bargain"
00:50:06.169 : en:Back in Chicago
00:53:26.536 : en:Meeting Nichols
00:56:00.648 : en:Cook County Hospital
00:59:19.931 : en:Background Checks
01:02:52.602 : en:House Under Siege
01:07:44.268 : en:Practicing Medicine
01:13:49.299 : en:An Interest in Prosthetics
01:15:41.370 : en:Visiting Clive Driscoll
01:19:16.251 : en:Face to Face
01:21:53.867 : en:The Luck of the Irish
01:24:42.619 : en:Breaking and Entering
01:29:46.923 : en:A Big Piece of the Puzzle
01:35:26.387 : en:"It Was Me There Were After"
01:36:58.854 : en:Over This Ground Before
01:40:53.047 : en:Someone with Access
01:44:24.091 : en:Marked Man on the El
01:50:03.972 : en:An Interrupted Speech
01:54:43.084 : en:Mayhem on the Roof
01:58:28.059 : en:Stalkers in the Laundry
02:02:41.562 : en:Time to Stop Running
02:04:04.812 : en:Their Secret
02:05:50.251 : en:End Credits
Скриншоты:

Время раздачи: 09:00 до 23:00 по возможности

[Цитировать]



Показать сообщения:    

Текущее время: 10-Дек 21:34

Часовой пояс: UTC + 3


Вы не можете начинать темы
Вы не можете отвечать на сообщения
Вы не можете редактировать свои сообщения
Вы не можете удалять свои сообщения
Вы не можете голосовать в опросах
Вы не можете прикреплять файлы к сообщениям
Вы не можете скачивать файлы

!ВНИМАНИЕ!
Сайт не предоставляет электронные версии произведений, а занимается лишь коллекционированием и каталогизацией ссылок, присылаемых и публикуемых на форуме нашими читателями. Если вы являетесь правообладателем какого-либо представленного материала и не желаете, чтобы ссылка на него находилась в нашем каталоге, свяжитесь с нами, и мы незамедлительно удалим ее. Файлы для обмена на трекере предоставлены пользователями сайта, и администрация не несет ответственности за их содержание. Просьба не заливать файлы, защищенные авторскими правами, а также файлы нелегального содержания!