[ Сегодня идет свободное скачивание без начисления Download ]


Статистика раздачи
Нет
 
   
 
Top  
 
 
Мэгги / Зараженная / Maggie (2015) DVDRip Информация о фильме
Название: Мэгги / Зараженная
Оригинальное название: Maggie
Год выхода: 2015
Жанр: триллер, ужасы
Режиссер: Генри Хобсон
В ролях: Арнольд Шварценеггер, Эбигейл Бреслин, Джоэли Ричардсон, Лора Кайюэтт, Эми Брассетт, Денис Уильямсон, Дж.Д. Эвермор, Рэден Грир, Эйден Флауэрс, Тейлор Мерфи
О фильме: Девочка-подросток Мэгги заражается болезнью, медленно превращающей инфицированных в зомби. Правительство организует карантин для инфицированных, где их помещают в изоляцию. Её любящий отец не готов помещать её в карантин, и она живёт вместе с ним.

Страна: США, Швейцария
Студия: Gold Star Films, Grindstone Entertainment Group, Lionsgate, Lotus Entertainment (II), Matt Baer Films, Silver Reel, Sly Predator
Продолжительность: 01:29:49
Перевод: Профессиональный (многоголосый, закадровый) [Лицензия]
Субтитры: Нет
Семпл
Файл
Кодек: XviD
Качество: DVDRip
Видео: 688x384 (1.79:1), 25 fps, XviD build 73 ~1845 kbps avg, 0.28 bit/pixel
Звук: 48 kHz, AC3 Dolby Digital, 3/2 (L,C,R,l,r) + LFE ch, ~448 kbps

MediaInfo

Общее
Полное имя : Zarazhennaya.2015.DVDRip.ot.Portablius.avi
Формат : AVI
Формат/Информация : Audio Video Interleave
Размер файла : 1,44 Гбайт
Продолжительность : 1 ч. 29 м.
Общий поток : 2303 Кбит/сек
Программа кодирования : VirtualDubMod 1.5.10.3 | www.virtualdub-fr.org || (build 2550/release)
Библиотека кодирования : VirtualDubMod build 2550/release
Видео
Идентификатор : 0
Формат : MPEG-4 Visual
Профиль формата : Advanced Simple@L5
Параметр BVOP формата : 1
Параметр QPel формата : Нет
Параметр GMC формата : Без точки перехода
Параметр матрицы формата : Выборочная
Идентификатор кодека : XVID
Идентификатор кодека/Подсказка : XviD
Продолжительность : 1 ч. 29 м.
Битрейт : 1845 Кбит/сек
Ширина : 688 пикселей
Высота : 384 пикселя
Соотношение сторон : 16:9
Частота кадров : 25,000 кадров/сек
Цветовое пространство : YUV
Субдискретизация насыщенности : 4:2:0
Битовая глубина : 8 бит
Тип развёртки : Прогрессивная
Метод сжатия : С потерями
Бит/(Пиксели*Кадры) : 0.279
Размер потока : 1,16 Гбайт (80%)
Библиотека кодирования : XviD 73
Аудио
Идентификатор : 1
Формат : AC-3
Формат/Информация : Audio Coding 3
Расширение режима : CM (complete main)
Параметр Endianness формата : Big
Идентификатор кодека : 2000
Продолжительность : 1 ч. 29 м.
Вид битрейта : Постоянный
Битрейт : 448 Кбит/сек
Каналы : 6 каналов
Расположение каналов : Front: L C R, Side: L R, LFE
Частота : 48,0 КГц
Частота кадров : 31,250 кадров/сек (1536 spf)
Метод сжатия : С потерями
Размер потока : 288 Мбайт (19%)
Выравнивание : Разделение по промежуткам
Продолжительность промежутка : 40 мс. (1,00 видеокадр)
Время предзагрузки промежутка : 500 мс.

Скриншоты

[Цитировать]



Показать сообщения:    

Текущее время: 07-Дек 19:21

Часовой пояс: UTC + 3


Вы не можете начинать темы
Вы не можете отвечать на сообщения
Вы не можете редактировать свои сообщения
Вы не можете удалять свои сообщения
Вы не можете голосовать в опросах
Вы не можете прикреплять файлы к сообщениям
Вы не можете скачивать файлы

!ВНИМАНИЕ!
Сайт не предоставляет электронные версии произведений, а занимается лишь коллекционированием и каталогизацией ссылок, присылаемых и публикуемых на форуме нашими читателями. Если вы являетесь правообладателем какого-либо представленного материала и не желаете, чтобы ссылка на него находилась в нашем каталоге, свяжитесь с нами, и мы незамедлительно удалим ее. Файлы для обмена на трекере предоставлены пользователями сайта, и администрация не несет ответственности за их содержание. Просьба не заливать файлы, защищенные авторскими правами, а также файлы нелегального содержания!