[ Сегодня идет свободное скачивание без начисления Download ]


Статистика раздачи
Нет
 
   
 
Top  
 
 
Поворотный пункт / The Turning Point (1977) HDTV 1080i Информация о фильме
Название: Поворотный пункт
Оригинальное название: The Turning Point
Год выхода: 1977
Жанр: Драма, мелодрама
Режиссер: Херберт Росс
В ролях: Энн Бэнкрофт, Ширли МакЛейн, Лесли Браун, Том Скерритт, Михаил Барышников, Марта Скотт, Антониетта Сибли, Александра Данилова, Старр Даниас, Маршалл Томпсон, Джеймс Митчелл, Дэниэл Леванс, Скотт Дуглас, Лиза Лукас, Филлип Саундерс
О фильме:
Две некогда соперничавшие друг с другом балерины встречаются снова. Одна Эмма Джеклин - звезда балета, а другая Диди Роджерс - домашняя хозяйка, подрабатывающая уроками танца, чья дочь начала карьеру в балете... В фильме много отличных балетных сцен с участием дебютирующего в художественном кино Михаила Барышникова.
Страна: США
Студия: Hera Productions, Twentieth Century Fox
Продолжительность: 01:52:35
Перевод: Профессиональный многоголосый закадровый

Файл
Кодек: h.264
Качество: HDTV 1080i
Видео: MPEG-4 AVC, ~ 7024 Кбит/с, 1920x1080, 25.000 кадр/с
Звук:
Русский (AC3, 6 ch, 384 Кбит/с) / Профессиональный многоголосый
Русский (MP2, 2 ch, 192 Кбит/с) / Профессиональный многоголосый
Семпл

Награды

Британская академия, 1979 год
Номинации (1):
Лучшая женская роль (Энн Бэнкрофт)
Оскар, 1978 год
Номинации (11):
Лучший фильм
Лучшая женская роль (Ширли МакЛейн)
Лучшая женская роль (Энн Бэнкрофт)
Лучшая мужская роль второго плана (Михаил Барышников)
Лучшая женская роль второго плана (Лесли Браун)
Лучший режиссер (Херберт Росс)
Лучший сценарий
Лучшая работа оператора
Лучшие декорации
Лучший звук
Лучший монтаж
Золотой глобус, 1978 год
Победитель (2):
Лучший фильм (драма)
Лучший режиссер ( Херберт Росс )
Номинации (4):
Лучшая женская роль (драма) (Энн Бэнкрофт)
Лучшая женская роль второго плана (Лесли Браун)
Лучшая мужская роль второго плана (Михаил Барышников)
Лучший сценарий

MI

General
ID : 1 (0x1)
Complete name : D:uTorrentPovorotnyi.punkt.1977.HDTV.1080i.MediaClub.ts
Format : MPEG-TS
File size : 6.29 GiB
Duration : 1 h 52 min
Overall bit rate mode : Variable
Overall bit rate : 8 001 kb/s
Video
ID : 205 (0xCD)
Menu ID : 20105 (0x4E89)
Format : AVC
Format/Info : Advanced Video Codec
Format profile : High@L4
Format settings, CABAC : Yes
Format settings, ReFrames : 4 frames
Codec ID : 27
Duration : 1 h 52 min
Bit rate : 7 024 kb/s
Width : 1 920 pixels
Height : 1 080 pixels
Display aspect ratio : 16:9
Frame rate : 25.000 FPS
Color space : YUV
Chroma subsampling : 4:2:0
Bit depth : 8 bits
Scan type : Interlaced
Scan type, store method : Separated fields
Scan order : Bottom Field First
Bits/(Pixel*Frame) : 0.135
Stream size : 5.52 GiB (88%)
Color range : Limited
Color primaries : BT.709
Transfer characteristics : BT.709
Matrix coefficients : BT.709
Audio #1
ID : 305 (0x131)
Menu ID : 20105 (0x4E89)
Format : AC-3
Format/Info : Audio Coding 3
Mode extension : CM (complete main)
Format settings, Endianness : Big
Codec ID : 6
Duration : 1 h 52 min
Bit rate mode : Constant
Bit rate : 384 kb/s
Channel(s) : 6 channels
Channel positions : Front: L C R, Side: L R, LFE
Sampling rate : 48.0 kHz
Frame rate : 31.250 FPS (1536 spf)
Compression mode : Lossy
Delay relative to video : -40 ms
Stream size : 309 MiB (5%)
Language : Russian
Audio #2
ID : 306 (0x132)
Menu ID : 20105 (0x4E89)
Format : MPEG Audio
Format version : Version 1
Format profile : Layer 2
Codec ID : 3
Duration : 1 h 52 min
Bit rate mode : Constant
Bit rate : 192 kb/s
Channel(s) : 2 channels
Sampling rate : 48.0 kHz
Compression mode : Lossy
Delay relative to video : -40 ms
Stream size : 155 MiB (2%)
Language : Russian
Text
ID : 307 (0x133)-888
Menu ID : 20105 (0x4E89)
Format : Teletext Subtitle
Language : Russian
Language, more info : For hearing impaired people

Скриншоты

[Цитировать]



Показать сообщения:    

Текущее время: 08-Дек 19:09

Часовой пояс: UTC + 3


Вы не можете начинать темы
Вы не можете отвечать на сообщения
Вы не можете редактировать свои сообщения
Вы не можете удалять свои сообщения
Вы не можете голосовать в опросах
Вы не можете прикреплять файлы к сообщениям
Вы не можете скачивать файлы

!ВНИМАНИЕ!
Сайт не предоставляет электронные версии произведений, а занимается лишь коллекционированием и каталогизацией ссылок, присылаемых и публикуемых на форуме нашими читателями. Если вы являетесь правообладателем какого-либо представленного материала и не желаете, чтобы ссылка на него находилась в нашем каталоге, свяжитесь с нами, и мы незамедлительно удалим ее. Файлы для обмена на трекере предоставлены пользователями сайта, и администрация не несет ответственности за их содержание. Просьба не заливать файлы, защищенные авторскими правами, а также файлы нелегального содержания!