[ Сегодня идет свободное скачивание без начисления Download ]


Статистика раздачи
Нет
 
   
 
 
 
-Анна Каренина / Anna Karenina (1948) DVD5
«This Was Her One Tragic Love !»
- Русское название: Анна Каренина
Оригинальное название: Anna Karenina
Год выпуска: 1948
Производство: Великобритания, London Film Productions
Жанр: Драма, мелодрама
Перевод: Профессиональный (многоголосый, закадровый)
Субтитры: Отсутствуют
Режиссер: Жюльен Дювивье
Сценарий: Жан Ануй, Жюльен Дювивье, Гай Морган
Актеры: Вивьен Ли, Ральф Ричардсон, Кирон Мур, Хью Демпстер, Мэри Керридж, Мари Лор, Фрэнк Тикл, Сэлли Энн Хоус, Найолл МакГиннис, Майкл Гоу, Мартита Хант, Хезер Тэтчер, Хелен Хэйи, Мари Мартлю, Руби Миллер, Остин Тревор
Описание фильма:
Незабываемая работа Вивьен Ли в картине мэтра французского кинематографа Жюльена Дювивье о трагедии "незаконной" любви Анны Карениной, молодой красивой женщины, полной жизни, жажды любви.
Как передать драму женщины, у которой есть всё — муж, положение в свете, деньги, дети, друзья — а она всё равно несчастлива? На вокзале Анна знакомится с графом Вронским и понимает, чего именно ей не хватало в этой жизни — бурных страстей, красавца-любовника и страха перед разоблачением.
Долгое время связь удавалось скрывать, но однажды, на бегах, тайное становится явным… Муж угрожает публичным скандалом, лишением материнских прав и денежными санкциями, Вронский же не может предложить ничего, кроме любви…

Продолжительность: 02:13:41
Качество видео: DVD5
Видеокодек: MPEG2
Битрейт видео: ~ 4635.93 Кбит/сек
Размер кадра: 720х576@768х576
Аудио: Русский, AC3, 2 ch, 192 Кбит/сек
Доп. материалы на диске: Смотрите на DVD

DVDInfo

Title: Анна Каренина (1948) DVD5
Size: 4.37 Gb ( 4 577 714,00 KBytes ) - DVD-5
Enabled regions: 1, 2, 3, 4, 5, 6, 7, 8
VTS_01 :
  Play Length: 00:00:13+00:00:55+02:13:41
  Video: PAL 4:3 (720x576) VBR
  Audio:
      Russian (Dolby AC3, 2 ch)
* Menus Information *
VIDEO_TS Menu
Video:
      PAL 4:3 (720x576) VBR
English Language Unit :
      Title Menu
VTS_01 Menu
Video:
      PAL 4:3 (720x576) VBR
English Language Unit :
      Root Menu
      Chapter (PTT) Menu

MediaInfo

Общее
Полное имя                               : E:\Раздачи\Видео\Анна Каренина (1948) DVD5\VIDEO_TS\VTS_01_2.VOB
Формат                                   : MPEG-PS
Размер файла                             : 1024 Мбайт
Продолжительность                        : 28 м.
Режим общего битрейта                    : Переменный
Общий поток                              : 4953 Кбит/сек
Видео
Идентификатор                            : 224 (0xE0)
Формат                                   : MPEG Video
Версия формата                           : Version 2
Профиль формата                          : Main@Main
Параметр BVOP формата                    : Да
Параметр матрицы формата                 : Выборочная
Параметр GOP формата                     : M=3, N=12
Продолжительность                        : 28 м.
Вид битрейта                             : Переменный
Битрейт                                  : 4662 Кбит/сек
Максимальный битрейт                     : 9800 Кбит/сек
Ширина                                   : 720 пикселей
Высота                                   : 576 пикселей
Соотношение сторон                       : 4:3
Частота кадров                           : 25,000 кадров/сек
Стандарт вещания                         : Component
Цветовое пространство                    : YUV
Субдискретизация насыщенности            : 4:2:0
Битовая глубина                          : 8 бит
Тип развёртки                            : Прогрессивная
Порядок развёртки                        : Верхнее поле первое
Метод сжатия                             : С потерями
Бит/(Пиксели*Кадры)                      : 0.450
Размер потока                            : 964 Мбайт (94%)
Основные цвета                           : BT.470-2 System B, BT.470-2 System G
Характеристики трансфера                 : BT.470-2 System B, BT.470-2 System G
Коэффициенты матрицы                     : BT.470-2 System B, BT.470-2 System G
Аудио
Идентификатор                            : 189 (0xBD)-128 (0x80)
Формат                                   : AC-3
Формат/Информация                        : Audio Coding 3
Расширение режима                        : CM (complete main)
Параметр Endianness формата              : Big
Режим смешивания                         : DVD-Video
Продолжительность                        : 28 м.
Вид битрейта                             : Постоянный
Битрейт                                  : 192 Кбит/сек
Каналы                                   : 2 канала
Расположение каналов                     : Front: L R
Частота                                  : 48,0 КГц
Битовая глубина                          : 16 бит
Метод сжатия                             : С потерями
Задержка видео                           : -552 мс.
Размер потока                            : 39,7 Мбайт (4%)
Меню

Скриншоты меню

Скриншоты:

-Время раздачи: 9.00 - 23.00 (по мере возможности...)

[Цитировать]



Показать сообщения:    

Текущее время: 07-Дек 21:25

Часовой пояс: UTC + 3


Вы не можете начинать темы
Вы не можете отвечать на сообщения
Вы не можете редактировать свои сообщения
Вы не можете удалять свои сообщения
Вы не можете голосовать в опросах
Вы не можете прикреплять файлы к сообщениям
Вы не можете скачивать файлы

!ВНИМАНИЕ!
Сайт не предоставляет электронные версии произведений, а занимается лишь коллекционированием и каталогизацией ссылок, присылаемых и публикуемых на форуме нашими читателями. Если вы являетесь правообладателем какого-либо представленного материала и не желаете, чтобы ссылка на него находилась в нашем каталоге, свяжитесь с нами, и мы незамедлительно удалим ее. Файлы для обмена на трекере предоставлены пользователями сайта, и администрация не несет ответственности за их содержание. Просьба не заливать файлы, защищенные авторскими правами, а также файлы нелегального содержания!