[ Сегодня идет свободное скачивание без начисления Download ]


Статистика раздачи
Нет
 
   
 
Top  
 
 
Прекрасный мир / Le beau monde (2014) DVDRip - Производство: Франция
Жанр: Комедия
Режиссер: Джюли Лопес-Кюрваль
Актеры: Ана Жирардо, Бастьен Буллон, Батист Лекаплен, Орелия Пети, Серхи Лопес, Индия Хэйр, Стефан Биссо, Lawrence Valin, Бланш Клюзе, Дэвид Ури
Описание:
Элизе 20 лет, она живет в Байе во Франции. Страстная вышивальщица, она придумывает новые вышивки, она создает, она ищет. Она не знает, что делать со своим увлечением, пока не встречает Аньес, богатую парижанку, которая помогает ей поступить в престижную школу в Париже. Не раздумывая, Элиза оставляет прошлую жизнь позади, только чтобы жить в Париже. Там она знакомится с Антуаном, сыном Аньес. Между ними возникает страстная любовь. Антуан находит в Элизе ту искренность и наивность, которые ему так не хватало в среде буржуа, которых он ненавидит. А Элиза благодаря Антуану обнаруживает внутренний мир элиты, который её завораживает…

Продолжительность: 01:31:34
Качество видео: DVDRip СЭМПЛ
Перевод: Многоголосый закадровый, профессиональный (1 канал)
Видео: Xvid, 720x384, 1621 Kb/s
Аудио 1: AC3, 2 ch, 192 Kb/s (Rus)
Аудио 2: AC3, 6 ch, 448 Kb/s (Fra)

Mediainfo:

Le beau monde (2014) DVDRip.avi
Format                         : AVI
Format/Info                    : Audio Video Interleave
File size                      : 1.46 GiB
Duration                       : 1 h 31 min
Overall bit rate               : 2 275 kb/s
Movie name                     : Прекрасный мир / Le Beau Monde (2014)
Writing application            : VirtualDubMod 1.5.10.2 (build 2540/release)
Writing library                : VirtualDubMod build 2540/release
Copyright                      : miha2154
Video
ID                             : 0
Format                         : MPEG-4 Visual
Format profile                 : Advanced [email protected]
Format settings, BVOP          : 1
Format settings, QPel          : No
Format settings, GMC           : No warppoints
Format settings, Matrix        : Custom
Codec ID                       : XVID
Codec ID/Hint                  : XviD
Duration                       : 1 h 31 min
Bit rate                       : 1 621 kb/s
Width                          : 720 pixels
Height                         : 384 pixels
Display aspect ratio           : 1.85:1
Frame rate                     : 25.000 FPS
Color space                    : YUV
Chroma subsampling             : 4:2:0
Bit depth                      : 8 bits
Scan type                      : Progressive
Compression mode               : Lossy
Bits/(Pixel*Frame)             : 0.234
Stream size                    : 1.04 GiB (71%)
Writing library                : XviD 65
Audio #1
ID                             : 1
Format                         : AC-3
Format/Info                    : Audio Coding 3
Mode extension                 : CM (complete main)
Format settings, Endianness    : Big
Codec ID                       : 2000
Duration                       : 1 h 31 min
Bit rate mode                  : Constant
Bit rate                       : 192 kb/s
Channel(s)                     : 2 channels
Channel positions              : Front: L R
Sampling rate                  : 48.0 kHz
Frame rate                     : 31.250 FPS (1536 spf)
Compression mode               : Lossy
Stream size                    : 126 MiB (8%)
Alignment                      : Split accross interleaves
Interleave, duration           : 40  ms (1.00 video frame)
Interleave, preload duration   : 500  ms
Title                          : Профессиональный (многоголосый закадровый) 1 канал
Audio #2
ID                             : 2
Format                         : AC-3
Format/Info                    : Audio Coding 3
Mode extension                 : CM (complete main)
Format settings, Endianness    : Big
Codec ID                       : 2000
Duration                       : 1 h 31 min
Bit rate mode                  : Constant
Bit rate                       : 448 kb/s
Channel(s)                     : 6 channels
Channel positions              : Front: L C R, Side: L R, LFE
Sampling rate                  : 48.0 kHz
Frame rate                     : 31.250 FPS (1536 spf)
Compression mode               : Lossy
Stream size                    : 293 MiB (20%)
Alignment                      : Split accross interleaves
Interleave, duration           : 40  ms (1.00 video frame)
Interleave, preload duration   : 500  ms
Title                          : Французский
Скриншоты:

[Цитировать]



Показать сообщения:    

Текущее время: 05-Дек 21:42

Часовой пояс: UTC + 3


Вы не можете начинать темы
Вы не можете отвечать на сообщения
Вы не можете редактировать свои сообщения
Вы не можете удалять свои сообщения
Вы не можете голосовать в опросах
Вы не можете прикреплять файлы к сообщениям
Вы не можете скачивать файлы

!ВНИМАНИЕ!
Сайт не предоставляет электронные версии произведений, а занимается лишь коллекционированием и каталогизацией ссылок, присылаемых и публикуемых на форуме нашими читателями. Если вы являетесь правообладателем какого-либо представленного материала и не желаете, чтобы ссылка на него находилась в нашем каталоге, свяжитесь с нами, и мы незамедлительно удалим ее. Файлы для обмена на трекере предоставлены пользователями сайта, и администрация не несет ответственности за их содержание. Просьба не заливать файлы, защищенные авторскими правами, а также файлы нелегального содержания!