[ Today is free to download without increasing Download ]

DL-List and Torrent activity
Complete: [ 1 ]
Полный расколбас / Sausage Party (2016) CamRip - Производство: США | Columbia Pictures, Annapurna Pictures, Nitrogen Studios Canada, Point Grey Pictures
Жанр: Комедия, Приключения
Режиссер: Грег Тирнан, Конрад Вернон
Актеры: Алистэр Эбелл, Айрис Апатоу, Стефани Бирд, Майкл Сера, Йен Джеймс Корлетт, Майкл Дэйнджерфилд, Брайан Добсон, Майкл Добсон, Джеймс Франко
Первая анимационная комедия для взрослых о невероятных приключениях еды из супермаркета. Съедобным друзьям предстоит получить ответ на главный вопрос: есть ли жизнь за стенами супермаркета и что же происходит с продуктами после того, как они попадают к людям домой..?

Возраст: 18+ (зрителям, достигшим 18 лет. запрещено для детей)
Рейтинг MPAA: R (лицам до 17 лет обязательно присутствие взрослого)
Дата мировой премьеры: 14 марта 2016
Дата российской премьеры: 8 сентября 2016
Качество видео: CamRip СЭМПЛ
Перевод: Многоголосый закадровый, любительский
Субтитры: Отсутствуют
Реклама: Присутствуют голосовые и текстовые вставки рекламы.
Видео: 720x256, 29.970 fps, 2003 Кбит/с
Аудио: 384 kb/s, 2 ch, 48.0 KHz


I:\ЭКРАНКИ\2016 - Полный расколбас-Sausage Party.L2.CAMRip.avi
      Complete name : I:\ЭКРАНКИ\2016 - Полный расколбас-Sausage Party.L2.CAMRip.avi
      Format : AVI
      Format/Info : Audio Video Interleave
      File size : 1.37 GiB
      Duration : 1h 21mn
      Overall bit rate : 2 399 Kbps
      Writing application : VirtualDubMod (build 2540/release)
      Writing library : VirtualDubMod build 2540/release
   Video #0
      ID : 0
      Format : MPEG-4 Visual
      Format profile : Advanced Simple@L5
      Format settings, BVOP : 2
      Format settings, QPel : No
      Format settings, GMC : No warppoints
      Format settings, Matrix : Custom
      Codec ID : XVID
      Codec ID/Hint : XviD
      Duration : 1h 21mn
      Bit rate : 2 003 Kbps
      Width : 720 pixels
      Height : 256 pixels
      Display aspect ratio : 2.813
      Frame rate : 29.970 (30000/1001) fps
      Color space : YUV
      Chroma subsampling : 4:2:0
      Bit depth : 8 bits
      Scan type : Progressive
      Compression mode : Lossy
      Bits/(Pixel*Frame) : 0.363
      Stream size : 1.14 GiB (84%)
      Writing library : XviD 1.2.1 (UTC 2008-12-04)
   Audio #1
      ID : 1
      Format : AC-3
      Format/Info : Audio Coding 3
      Mode extension : CM (complete main)
      Format settings, Endianness : Big
      Codec ID : 2000
      Duration : 1h 21mn
      Bit rate mode : Constant
      Bit rate : 384 Kbps
      Channel(s) : 2 channels
      Channel positions : Front: L R
      Sampling rate : 48.0 KHz
      Frame rate : 31.250 fps (1536 spf)
      Compression mode : Lossy
      Stream size : 224 MiB (16%)
      Alignment : Split accross interleaves
      Interleave, duration : 33 ms (1.00 video frame)
      Interleave, preload duration : 500 ms


Display posts:    

Current time is: 20-Oct 22:38

All times are UTC + 3

You cannot post new topics in this forum
You cannot reply to topics in this forum
You cannot edit your posts in this forum
You cannot delete your posts in this forum
You cannot vote in polls in this forum
You cannot attach files in this forum
You cannot download files in this forum

The site does not give electronic versions of products, and is engaged only in a collecting and cataloguing of the references sent and published at a forum by our readers. If you are the legal owner of any submitted material and do not wish that the reference to it was in our catalogue, contact us and we shall immediately remove her. Files for an exchange on tracker are given by users of a site, and the administration does not bear the responsibility for their maintenance. The request to not fill in the files protected by copyrights, and also files of the illegal maintenance!