[ Сегодня идет свободное скачивание без начисления Download ]


Статистика раздачи
Скачал: [ 1 ]
 
   
 
Top  
 
 
Прибытие / Arrival (2016) WEBRip - Производство: США / 21 Laps Entertainment, FilmNation Entertainment, Lava Bear Films
Жанр: Фантастика
Режиссер: Дени Вильнёв
Актеры: Эми Адамс, Джереми Реннер, Форест Уитакер, Майкл Стулбарг, Натали Тибо, Марк О’Брайэн, Ци Ма, Эбигейл Пнёвски, Леиза Рейд, Фрэнк Фиола
Описание:
По всему миру приземляются инопланетные корабли. Армейские чины находят лингвистку, которая должна понять, что несет за собой визит пришельцев — мир или войну. Главная героиня постепенно учится общаться с инопланетянами и вместе с этим испытывает серию флешбэков, благодаря чему узнает тайну, с которой связано прибытие пришельцев.

Дата мировой премьеры: 1 сентября 2016
Дата российской премьеры: 8 декабря 2016, «WDSSPR»
Продолжительность: 00:02:33
Качество видео: WEBRip
Перевод: Дублированный
Видео: AVC, 1920x1080 (16:9), 24.000 fps, 19.0 Mbps (0.382 bit/pixel)
Аудио: AAC LC, 48.0 KHz, 2 ch, 128 Kbps, CBR

Mediainfo:

General
Complete name               : E:\Arrival.2016.TRL_Rus.mov
Format                      : MPEG-4
Format profile              : QuickTime
Codec ID                    : qt   2005.03 (qt  )
File size                   : 349 MiB
Duration                    : 2 min
Overall bit rate            : 19.2 Mb/s
Encoded date                : UTC 2016-08-16 09:20:08
Tagged date                 : UTC 2016-08-16 09:29:33
Writing library             : Apple QuickTime
Media/UUID                  : EB2DA86A-8B84-47D4-8696-FF8B5E8936C5
Video
ID                          : 1
Format                      : AVC
Format/Info                 : Advanced Video Codec
Format profile              : [url=mailto:Main@L4.1]Main@L4.1[/url]
Format settings, CABAC      : No
Format settings, ReFrames   : 2 frames
Codec ID                    : avc1
Codec ID/Info               : Advanced Video Coding
Duration                    : 2 min
Bit rate                    : 19.0 Mb/s
Width                       : 1 920 pixels
Height                      : 1 080 pixels
Display aspect ratio        : 16:9
Frame rate mode             : Constant
Frame rate                  : 24.000 FPS
Color space                 : YUV
Chroma subsampling          : 4:2:0
Bit depth                   : 8 bits
Scan type                   : Progressive
Bits/(Pixel*Frame)          : 0.382
Stream size                 : 346 MiB (99%)
Language                    : English
Encoded date                : UTC 2016-08-16 09:29:13
Tagged date                 : UTC 2016-08-16 09:29:33
Color range                 : Limited
Color primaries             : BT.709
Transfer characteristics    : BT.709
Matrix coefficients         : BT.709
Audio
ID                          : 2
Format                      : AAC
Format/Info                 : Advanced Audio Codec
Format profile              : LC
Codec ID                    : 40
Duration                    : 2 min
Source duration             : 2 min
Bit rate mode               : Constant
Bit rate                    : 128 kb/s
Channel(s)                  : 2 channels
Channel positions           : Front: L R
Sampling rate               : 48.0 kHz
Frame rate                  : 46.875 FPS (1024 spf)
Compression mode            : Lossy
Stream size                 : 2.27 MiB (1%)
Source stream size          : 2.27 MiB (1%)
Language                    : English
Encoded date                : UTC 2016-08-16 09:29:14
Tagged date                 : UTC 2016-08-16 09:29:33
Other
ID                          : 3
Type                        : Time code
Format                      : QuickTime TC
Duration                    : 2 min
Time code of first frame    : 01:00:00:00
Time code, striped          : Yes
Title                       : XYZ_TIF_2D
Language                    : English
Encoded date                : UTC 2016-08-16 09:29:33
Tagged date                 : UTC 2016-08-16 09:29:33
Скриншоты:

[Цитировать]



Показать сообщения:    

Текущее время: 10-Дек 04:06

Часовой пояс: UTC + 3


Вы не можете начинать темы
Вы не можете отвечать на сообщения
Вы не можете редактировать свои сообщения
Вы не можете удалять свои сообщения
Вы не можете голосовать в опросах
Вы не можете прикреплять файлы к сообщениям
Вы не можете скачивать файлы

!ВНИМАНИЕ!
Сайт не предоставляет электронные версии произведений, а занимается лишь коллекционированием и каталогизацией ссылок, присылаемых и публикуемых на форуме нашими читателями. Если вы являетесь правообладателем какого-либо представленного материала и не желаете, чтобы ссылка на него находилась в нашем каталоге, свяжитесь с нами, и мы незамедлительно удалим ее. Файлы для обмена на трекере предоставлены пользователями сайта, и администрация не несет ответственности за их содержание. Просьба не заливать файлы, защищенные авторскими правами, а также файлы нелегального содержания!