[ Сегодня идет свободное скачивание без начисления Download ]


Статистика раздачи
Нет
 
   
 
Top  
 
 
-Я тоже хочу (2012) [720p] BDRip- Русское название: Я тоже хочу
Производство: Россия
Год выпуска: 2012
Производство: Россия
Жанр: Драма, Криминал
Описание фильма:
По пустынной летней дороге мчится огромный черный джип. В нем — Бандит, его друг Матвей со стариком-отцом, Музыкант и красивая девушка. Они ищут Колокольню Счастья, которая по слухам находится где-то между Питером и Угличем, рядом с уже давно неработающей атомной станцией. Колокольня забирает людей. Но не всех. Но в темной большой машине каждый верит, что выберут его.
Режиссер: Алексей Балабанов
Актеры: Александр Мосин, Олег Гаркуша, Юрий Матвеев, Алиса Шитикова, Алексей Балабанов, Петр Балабанов, Виктор Горбунов, Авдотья Смирнова, Сергей Шолохов, Сергей Кульчицкий
Дата мировой премьеры: 6 сентября 2012
Дата российской премьеры: 13 декабря 2012, «Наше Кино»
Дата выхода DVD релиза: 15 января 2013, «Lizard Cinema Trade»
Дата выхода Blu-Ray релиза: 29 января 2013, «Lizard Cinema Trade»
Продолжительность: 01:19:52
Перевод: Не требуется «Русский»
- -Качество видео: BDRip
Видеокодек: MPEG-4 AVC/H.264
Аудиокодек: DTS
Bидео: 1280x720 at 25.000 fps, ~4531 kb/s
Аудио# 1: Русский: DTS, 5.1 ch, 1509 kb/s
Субтитры: Отсутствуют

MediaInfo:

Формат : Matroska
Версия формата : Version 2
Размер файла : 3,36 Гбайт
Продолжительность : 1 ч. 19 м.
Общий поток : 6029 Кбит/сек
Название фильма : HDCLUB
Дата кодирования : UTC 2013-02-01 15:05:32
Программа кодирования : mkvmerge v5.7.0 ('The Whirlwind') built on Jul 8 2012 20:08:51
Библиотека кодирования : libebml v1.2.3 + libmatroska v1.3.0
Видео
Идентификатор : 1
Формат : AVC
Формат/Информация : Advanced Video Codec
Профиль формата : [email protected]
Параметр CABAC формата : Да
Параметр ReFrames формата : 9 кадров
Идентификатор кодека : V_MPEG4/ISO/AVC
Продолжительность : 1 ч. 19 м.
Битрейт : 4531 Кбит/сек
Ширина : 1280 пикселей
Высота : 720 пикселей
Соотношение сторон : 16:9
Режим частоты кадров : Постоянный
Частота кадров : 25,000 кадров/сек
Цветовое пространство : YUV
Субдискретизация насыщенности : 4:2:0
Битовая глубина : 8 бит
Тип развёртки : Прогрессивная
Бит/(Пиксели*Кадры) : 0.197
Размер потока : 2,45 Гбайт (73%)
Библиотека кодирования : x264 core 129 r2230 1cffe9f
Настройки программы : cabac=1 / ref=9 / deblock=1:-3:-3 / analyse=0x3:0x113 / me=umh / subme=11 / psy=1 / psy_rd=1.20:0.00 / mixed_ref=1 / me_range=32 / chroma_me=1 / trellis=2 / 8x8dct=1 / cqm=0 / deadzone=21,11 / fast_pskip=0 / chroma_qp_offset=-2 / threads=12 / lookahead_threads=2 / sliced_threads=0 / nr=0 / decimate=1 / interlaced=0 / bluray_compat=0 / constrained_intra=0 / bframes=11 / b_pyramid=2 / b_adapt=2 / b_bias=0 / direct=1 / weightb=1 / open_gop=0 / weightp=2 / keyint=250 / keyint_min=23 / scenecut=40 / intra_refresh=0 / rc_lookahead=40 / rc=2pass / mbtree=0 / bitrate=4531 / ratetol=1.0 / qcomp=0.60 / qpmin=10 / qpmax=69 / qpstep=4 / cplxblur=20.0 / qblur=0.5 / vbv_maxrate=50000 / vbv_bufsize=62500 / nal_hrd=none / ip_ratio=1.40 / pb_ratio=1.30 / aq=1:1.00
Язык : English
Default : Да
Forced : Нет
Аудио
Идентификатор : 2
Формат : DTS
Формат/Информация : Digital Theater Systems
Режим : 16
Параметр Endianness формата : Big
Идентификатор кодека : A_DTS
Продолжительность : 1 ч. 19 м.
Вид битрейта : Постоянный
Битрейт : 1509 Кбит/сек
Каналы : 6 каналов
Расположение каналов : Front: L C R, Side: L R, LFE
Частота : 48,0 КГц
Битовая глубина : 24 бит
Метод сжатия : С потерями
Размер потока : 862 Мбайт (25%)
Язык : Russian
Default : Да
Forced : Нет
Меню
00:00:00.000 : :00:00:00.000
00:06:02.680 : :00:06:02.680
00:11:28.600 : :00:11:28.600
00:16:42.400 : :00:16:42.400
00:25:26.280 : :00:25:26.280
00:32:08.840 : :00:32:08.840
00:39:30.080 : :00:39:30.080
00:46:23.160 : :00:46:23.160
00:52:33.040 : :00:52:33.040
01:00:25.200 : :01:00:25.200
01:08:25.320 : :01:08:25.320
01:13:45.520 : :01:13:45.520
Скриншоты:

Время раздачи: До первых 10 скачавших

[Цитировать]

Топик был перенесен из форума Новинки кинопроката (HD Video) в форум Российское / казахстанское кино
Bootch



Показать сообщения:    

Текущее время: 05-Дек 05:32

Часовой пояс: UTC + 3


Вы не можете начинать темы
Вы не можете отвечать на сообщения
Вы не можете редактировать свои сообщения
Вы не можете удалять свои сообщения
Вы не можете голосовать в опросах
Вы не можете прикреплять файлы к сообщениям
Вы не можете скачивать файлы

!ВНИМАНИЕ!
Сайт не предоставляет электронные версии произведений, а занимается лишь коллекционированием и каталогизацией ссылок, присылаемых и публикуемых на форуме нашими читателями. Если вы являетесь правообладателем какого-либо представленного материала и не желаете, чтобы ссылка на него находилась в нашем каталоге, свяжитесь с нами, и мы незамедлительно удалим ее. Файлы для обмена на трекере предоставлены пользователями сайта, и администрация не несет ответственности за их содержание. Просьба не заливать файлы, защищенные авторскими правами, а также файлы нелегального содержания!