[ Сегодня идет свободное скачивание без начисления Download ]


Статистика раздачи
Нет
 
   
 
Top  
 
 
Стервозные штучки / Bitch Slap (2009) Страна: США
Производство: Bombshell Pictures, IM Global
Год выпуска: 2009
Жанр: боевик, триллер, комедия, криминал
Продолжительность: 01:48:44
Режиссер: Рик Джейкобсон
Авторы сценария: Рик Джейкобсон, Эрик Грюндеманн
В ролях: Джулия Вот, Эрин Каммингс, Америка Оливо, Майкл Херст, Рон Мелендес, Уильям Грегори Ли, Мина Нодзи, Кевин Сорбо
Описание: Нереально крутую драку заказывали..? Готовится по рецепту: 3 очень-очень плохие девчонки, 1 пустыня, 1 заряженный «Тандерберд», 1473 ствола, 1 безжалостный преступный авторитет, контрабанда на 206 млн. USD, коп, который может вовсе и не коп, ещё сотни копов, которые уж точно копы (хотя кто его знает…), 317 наёмников, пара киллеров со съехавшей башней, несколько пар нижнего белья «Пути Пусс», одно хитрое устройство с красной кнопкой, которое может смести с этой планеты всё к чертям собачьим, два трейлера бабла, 1 чумовая панк-группа Nusty Nuns, банда феминисток в стрингах, 1 вооружённый психопат, горячие женщины в баре, несколько двойников Элвиса, смертельные секс игрушки, 1 отдел борьбы с организованной преступностью, 1 межконтинентальная заваруха, девчонки друг на друге, дерущиеся в грязи (добавлять по вкусу), уродцы из цирка и ещё большая куча чего-то невообразимого…
Всё ловко смешать, сильно взболтать и быстро поджечь! И отойди хоть на метр от экрана, а то как рванёт — мозги не соберёшь!

Перевод: Любительский (одноголосый) | RussianGuy27
Субтитры: английские-Качество: BDRip 1080p
Формат: MKV
Видео кодек: AVC
Аудио кодек: АС3 | DTS
Видео: 1920x816 (2.35:1), 23.976 fps, MPEG-4 AVC ~10.1 Мbps avg
Аудио №1: 48.0 kHz, AC3 Dolby Digital, 3/2 (L,C,R,l,r) + LFE ch, ~448 kbps | VO / RussianGuy27
Аудио №2: 96.0 kHz, Digital Theater Systems, 3/2 (L,C,R,l,r) + LFE ch, ~1510 kbps | ENG
Аудио №3: 48.0 kHz, AC3 Dolby Digital, 2/0 (L,R) ch, ~224 kbps | ENG
Аудио №4: 48.0 kHz, AC3 Dolby Digital, 2/0 (L,R) ch, ~224 kbps | ENG
Формат субтитров: UTF-8 Plain Text
Дата премьеры (мир): 14 сентября 2009
Дата премьеры (РФ): 1 июля 2010, «Люксор»

Media Info

Полное имя : Bitch.Slap.2009.x264.BDRip.1080p.NovaLan.mkv
Формат : Matroska
Версия формата : Version 4 / Version 2
Размер файла : 9,50 Гбайт
Продолжительность : 1 ч. 48 м.
Общий поток : 12,5 Мбит/сек
Название фильма : Bitch Slap 2009 - NovaLan
Дата кодирования : UTC 2016-08-20 17:55:29
Программа кодирования : mkvmerge v6.9.1 ('Blue Panther') 64bit built on Apr 18 2014 18:23:38
Библиотека кодирования : libebml v1.3.0 + libmatroska v1.4.1
Видео
Идентификатор : 1
Формат : AVC
Формат/Информация : Advanced Video Codec
Профиль формата : [email protected]
Параметр CABAC формата : Да
Параметр ReFrames формата : 4 кадра
Идентификатор кодека : V_MPEG4/ISO/AVC
Продолжительность : 1 ч. 48 м.
Битрейт : 10,1 Мбит/сек
Ширина : 1920 пикселей
Высота : 816 пикселей
Соотношение сторон : 2,35:1
Частота кадров : 23,976 кадра/сек
Цветовое пространство : YUV
Субдискретизация насыщенности : 4:2:0
Битовая глубина : 8 бит
Тип развёртки : Прогрессивная
Бит/(Пиксели*Кадры) : 0.269
Размер потока : 7,49 Гбайт (79%)
Заголовок : Sergei7721
Библиотека кодирования : x264 core 148 r2705 3f5ed56
Настройки программы : cabac=1 / ref=4 / deblock=1:-1:-1 / analyse=0x3:0x113 / me=umh / subme=11 / psy=1 / psy_rd=1.00:0.20 / mixed_ref=1 / me_range=24 / chroma_me=1 / trellis=2 / 8x8dct=1 / cqm=0 / deadzone=21,11 / fast_pskip=0 / chroma_qp_offset=-3 / threads=12 / lookahead_threads=1 / sliced_threads=0 / nr=0 / decimate=0 / interlaced=0 / bluray_compat=0 / constrained_intra=0 / bframes=6 / b_pyramid=2 / b_adapt=2 / b_bias=0 / direct=3 / weightb=1 / open_gop=0 / weightp=2 / keyint=240 / keyint_min=23 / scenecut=40 / intra_refresh=0 / rc_lookahead=40 / rc=2pass / mbtree=0 / bitrate=10101 / ratetol=1.0 / qcomp=0.60 / qpmin=0 / qpmax=69 / qpstep=4 / cplxblur=20.0 / qblur=0.5 / vbv_maxrate=50000 / vbv_bufsize=62500 / nal_hrd=none / filler=0 / ip_ratio=1.40 / pb_ratio=1.30 / aq=1:1.00
Default : Да
Forced : Нет
Аудио #1
Идентификатор : 2
Формат : AC-3
Формат/Информация : Audio Coding 3
Расширение режима : CM (complete main)
Параметр Endianness формата : Big
Идентификатор кодека : A_AC3
Продолжительность : 1 ч. 48 м.
Вид битрейта : Постоянный
Битрейт : 448 Кбит/сек
Каналы : 6 каналов
Расположение каналов : Front: L C R, Side: L R, LFE
Частота : 48,0 КГц
Битовая глубина : 16 бит
Метод сжатия : С потерями
Размер потока : 348 Мбайт (4%)
Язык : Russian
Default : Да
Forced : Нет
Аудио #2
Идентификатор : 3
Формат : DTS
Формат/Информация : Digital Theater Systems
Идентификатор кодека : A_DTS
Продолжительность : 1 ч. 48 м.
Вид битрейта : Постоянный
Битрейт : 1510 Кбит/сек
Каналы : 6 каналов
Расположение каналов : Front: L C R, Side: L R, LFE
Частота : 48,0 КГц
Битовая глубина : 24 бит
Метод сжатия : С потерями
Размер потока : 1,15 Гбайт (12%)
Язык : English
Default : Нет
Forced : Нет
Аудио #3
Идентификатор : 4
Формат : AC-3
Формат/Информация : Audio Coding 3
Расширение режима : CM (complete main)
Параметр Endianness формата : Big
Идентификатор кодека : A_AC3
Продолжительность : 1 ч. 48 м.
Вид битрейта : Постоянный
Битрейт : 224 Кбит/сек
Каналы : 2 канала
Расположение каналов : Front: L R
Частота : 48,0 КГц
Битовая глубина : 16 бит
Метод сжатия : С потерями
Размер потока : 174 Мбайт (2%)
Язык : English
Default : Нет
Forced : Нет
Аудио #4
Идентификатор : 5
Формат : AC-3
Формат/Информация : Audio Coding 3
Расширение режима : CM (complete main)
Параметр Endianness формата : Big
Идентификатор кодека : A_AC3
Продолжительность : 1 ч. 48 м.
Вид битрейта : Постоянный
Битрейт : 224 Кбит/сек
Каналы : 2 канала
Расположение каналов : Front: L R
Частота : 48,0 КГц
Битовая глубина : 16 бит
Метод сжатия : С потерями
Размер потока : 174 Мбайт (2%)
Язык : English
Default : Нет
Forced : Нет
Текст
Идентификатор : 6
Формат : UTF-8
Идентификатор кодека : S_TEXT/UTF8
Идентификатор кодека/Информация : UTF-8 Plain Text
Язык : English
Default : Нет
Forced : Нет
Меню
00:00:00.000 : en:00:00:00.000
00:04:15.630 : en:00:04:15.630
00:09:41.247 : en:00:09:41.247
00:14:54.810 : en:00:14:54.810
00:17:22.041 : en:00:17:22.041
00:21:56.732 : en:00:21:56.732
00:23:15.143 : en:00:23:15.143
00:24:57.496 : en:00:24:57.496
00:31:14.455 : en:00:31:14.455
00:34:59.430 : en:00:34:59.430
00:36:50.374 : en:00:36:50.374
00:39:03.466 : en:00:39:03.466
00:41:56.555 : en:00:41:56.555
00:47:24.925 : en:00:47:24.925
00:54:58.837 : en:00:54:58.837
00:59:51.337 : en:00:59:51.337
01:02:14.439 : en:01:02:14.439
01:07:35.843 : en:01:07:35.843
01:09:41.719 : en:01:09:41.719
01:12:40.939 : en:01:12:40.939
01:16:56.320 : en:01:16:56.320
01:19:30.182 : en:01:19:30.182
01:24:17.677 : en:01:24:17.677
01:30:06.901 : en:01:30:06.901
01:33:15.172 : en:01:33:15.172
01:38:17.099 : en:01:38:17.099
01:41:11.899 : en:01:41:11.899
01:43:26.408 : en:01:43:26.408
01:48:44.518 : en:01:48:44.518

Скриншоты

[Цитировать]



Показать сообщения:    

Текущее время: 05-Дек 11:34

Часовой пояс: UTC + 3


Вы не можете начинать темы
Вы не можете отвечать на сообщения
Вы не можете редактировать свои сообщения
Вы не можете удалять свои сообщения
Вы не можете голосовать в опросах
Вы не можете прикреплять файлы к сообщениям
Вы не можете скачивать файлы

!ВНИМАНИЕ!
Сайт не предоставляет электронные версии произведений, а занимается лишь коллекционированием и каталогизацией ссылок, присылаемых и публикуемых на форуме нашими читателями. Если вы являетесь правообладателем какого-либо представленного материала и не желаете, чтобы ссылка на него находилась в нашем каталоге, свяжитесь с нами, и мы незамедлительно удалим ее. Файлы для обмена на трекере предоставлены пользователями сайта, и администрация не несет ответственности за их содержание. Просьба не заливать файлы, защищенные авторскими правами, а также файлы нелегального содержания!