[ Сегодня идет свободное скачивание без начисления Download ]


Статистика раздачи
Нет
 
   
 
Top  
 
 
Академия вампиров / Vampire Academy (2014) Информация о фильме
Название: Академия вампиров
Оригинальное название: Vampire Academy
Год выпуска: 2014
Жанр: Ужасы, фэнтези, боевик, комедия, детектив
Режиссер: Марк Уотерс
В ролях: Зои Дойч, Люси Фрай, Данила Козловский, Доминик Шервуд, Сара Хайланд, Гэбриел Бирн, Сами Гэйл, Ольга Куриленко, Джоэли Ричардсон, Кэмерон Монахэн
Описание: Мало кому известно, что в Америке, в самом сердце Монтаны, имеется настоящая Академия, где вампиры обучаются высокому искусству магии. И почти никто не знает, что в мире идут кровавые вампирские войны и расе мороев противостоит жестокое племя стригоев, вампиров, переступивших черту закона и не гнушающихся убийством. Даже стены Академии, святая святых науки, не слишком надежная защита от происков темных сил. Юная моройская принцесса Лисса и Роза, ее подруга и верный страж, однажды убеждаются в этом, оказавшись в эпицентре грозных событий.

Выпущено: США / Angry Films, Kintop Pictures, Preger Entertainment
Продолжительность: 01:44:22
Перевод: Дублированный, Любительский многоголосый
Файл
Качество: BDRip (AVC)
Видео: MPEG-4 AVC, 1300 Кбит/с, 1024x426, 23.976 кадр/с
Аудио #1: Русский (AC3, 6 ch, 384 Кбит/с) / Дублированный (iTunes)
Аудио #2: Русский (AC3, 6 ch, 384 Кбит/с) / Любительский многоголосый (Baibako)
Аудио #3: Английский (AC3, 6 ch, 448 Кбит/с)
Субтитры: Русские, английские
Семпл

Скриншоты



x264

x264 [info]: frame I:1574  Avg QP:14.32  size: 56998
x264 [info]: frame P:32443 Avg QP:18.34  size: 14841
x264 [info]: frame B:116127 Avg QP:19.84  size:  3826
x264 [info]: consecutive B-frames:  2.5%  3.2%  6.7% 22.2% 20.7% 26.8%  5.8%  6.4%  1.4%  0.9%  0.8%  1.2%  1.5%
x264 [info]: mb I  I16..4:  9.9% 67.8% 22.3%
x264 [info]: mb P  I16..4:  0.8%  7.7%  1.2%  P16..4: 33.6% 36.4% 11.6%  0.0%  0.0%    skip: 8.7%
x264 [info]: mb B  I16..4:  0.0%  0.5%  0.1%  B16..8: 33.5% 16.7%  2.2%  direct: 2.7%  skip:44.3%  L0:42.3% L1:46.5% BI:11.1%
x264 [info]: 8x8 transform intra:76.5% inter:54.2%
x264 [info]: direct mvs  spatial:97.6% temporal:2.4%
x264 [info]: coded y,uvDC,uvAC intra: 86.0% 82.1% 62.6% inter: 13.1% 12.3% 6.6%
x264 [info]: i16 v,h,dc,p: 21%  9% 12% 57%
x264 [info]: i8 v,h,dc,ddl,ddr,vr,hd,vl,hu: 13%  9%  7%  9% 12% 13% 12% 13% 13%
x264 [info]: i4 v,h,dc,ddl,ddr,vr,hd,vl,hu: 15%  9%  5%  9% 14% 14% 12% 11% 11%
x264 [info]: i8c dc,h,v,p: 39% 24% 20% 17%
x264 [info]: Weighted P-Frames: Y:7.5% UV:4.4%
x264 [info]: ref P L0: 51.3%  8.2% 18.0%  6.1%  4.8%  3.7%  3.0%  1.7%  1.5%  1.3%  0.2%  0.0%
x264 [info]: ref B L0: 76.2% 11.2%  5.1%  2.5%  1.5%  1.8%  1.0%  0.5%  0.2%
x264 [info]: ref B L1: 93.0%  7.0%
x264 [info]: kb/s:1297.34

MI

Формат : Matroska
Версия формата : Version 1
Размер файла : 1,84 Гбайт
Продолжительность : 1 ч. 44 м.
Общий поток : 2518 Кбит/сек
Название фильма : -=MediaClub-kaspr=-
Дата кодирования : UTC 2016-08-21 16:15:20
Программа кодирования : mkvmerge v2.1.0 ('Another Place To Fall') built on Aug 19 2007 13:40:07
Библиотека кодирования : libebml v0.7.7 + libmatroska v0.8.1
DURATION : 01:44:22.304000000
NUMBER_OF_FRAMES : 195697
NUMBER_OF_BYTES : 300590592
_STATISTICS_WRITING_APP : mkvmerge v8.6.1 ('Flying') 64bit
_STATISTICS_WRITING_DATE_UTC : 2016-01-07 18:47:03
_STATISTICS_TAGS : BPS DURATION NUMBER_OF_FRAMES NUMBER_OF_BYTES
Видео
Идентификатор : 1
Формат : AVC
Формат/Информация : Advanced Video Codec
Профиль формата : High@L4.1
Параметр CABAC формата : Да
Параметр ReFrames формата : 10 кадров
Идентификатор кодека : V_MPEG4/ISO/AVC
Продолжительность : 1 ч. 44 м.
Битрейт : 1300 Кбит/сек
Ширина : 1024 пикселя
Высота : 426 пикселей
Соотношение сторон : 2,40:1
Режим частоты кадров : Постоянный
Частота кадров : 23,976 кадра/сек
Цветовое пространство : YUV
Субдискретизация насыщенности : 4:2:0
Битовая глубина : 8 бит
Тип развёртки : Прогрессивная
Бит/(Пиксели*Кадры) : 0.124
Размер потока : 935 Мбайт (50%)
Заголовок : -=MediaClub-kaspr=-
Библиотека кодирования : x264 core 142 r2431+42 c69a006 tMod [8-bit@4:2:0 X86_64]
Настройки программы : cabac=1 / ref=10 / deblock=1:-3:-3 / analyse=0x3:0x113 / me=umh / subme=11 / psy=1 / fade_compensate=0.00 / psy_rd=1.00:0.20 / mixed_ref=1 / me_range=32 / chroma_me=1 / trellis=2 / 8x8dct=1 / cqm=0 / deadzone=21,11 / fast_pskip=0 / chroma_qp_offset=-3 / threads=12 / lookahead_threads=3 / sliced_threads=0 / nr=0 / decimate=0 / interlaced=0 / bluray_compat=0 / constrained_intra=0 / fgo=0 / bframes=12 / b_pyramid=2 / b_adapt=2 / b_bias=0 / direct=3 / weightb=1 / open_gop=0 / weightp=2 / keyint=240 / keyint_min=23 / scenecut=40 / intra_refresh=0 / rc=2pass / mbtree=0 / bitrate=1300 / ratetol=1.0 / qcomp=0.60 / qpmin=0:0:0 / qpmax=69:69:69 / qpstep=4 / cplxblur=20.0 / qblur=0.5 / ip_ratio=1.40 / pb_ratio=1.30 / aq=4:0.80 / aq-sensitivity=10.00 / aq-factor=1.00:1.00:1.00 / aq2=0 / aq3=0
Default : Да
Forced : Нет
Аудио #1
Идентификатор : 2
Формат : AC-3
Формат/Информация : Audio Coding 3
Расширение режима : CM (complete main)
Параметр Endianness формата : Big
Идентификатор кодека : A_AC3
Продолжительность : 1 ч. 44 м.
Вид битрейта : Постоянный
Битрейт : 384 Кбит/сек
Каналы : 6 каналов
Расположение каналов : Front: L C R, Side: L R, LFE
Частота : 48,0 КГц
Битовая глубина : 16 бит
Метод сжатия : С потерями
Размер потока : 287 Мбайт (15%)
Заголовок : Dub
Язык : Russian
Default : Да
Forced : Нет
Аудио #2
Идентификатор : 3
Формат : AC-3
Формат/Информация : Audio Coding 3
Расширение режима : CM (complete main)
Параметр Endianness формата : Big
Идентификатор кодека : A_AC3
Продолжительность : 1 ч. 44 м.
Вид битрейта : Постоянный
Битрейт : 384 Кбит/сек
Каналы : 6 каналов
Расположение каналов : Front: L C R, Side: L R, LFE
Частота : 48,0 КГц
Битовая глубина : 16 бит
Метод сжатия : С потерями
Размер потока : 287 Мбайт (15%)
Заголовок : MVO (Baibako)
Язык : Russian
Default : Нет
Forced : Нет
Аудио #3
Идентификатор : 4
Формат : AC-3
Формат/Информация : Audio Coding 3
Расширение режима : CM (complete main)
Параметр Endianness формата : Big
Идентификатор кодека : A_AC3
Продолжительность : 1 ч. 44 м.
Вид битрейта : Постоянный
Битрейт : 448 Кбит/сек
Каналы : 6 каналов
Расположение каналов : Front: L C R, Side: L R, LFE
Частота : 48,0 КГц
Битовая глубина : 16 бит
Метод сжатия : С потерями
Размер потока : 334 Мбайт (18%)
Язык : English
Default : Нет
Forced : Нет
Текст #1
Идентификатор : 5
Формат : UTF-8
Идентификатор кодека : S_TEXT/UTF8
Идентификатор кодека/Информация : UTF-8 Plain Text
Язык : Russian
Default : Нет
Forced : Нет
Текст #2
Идентификатор : 6
Формат : UTF-8
Идентификатор кодека : S_TEXT/UTF8
Идентификатор кодека/Информация : UTF-8 Plain Text
Язык : English
Default : Нет
Forced : Нет
Меню #1
00:00:00.000 : en:Chapter 01
00:06:11.913 : en:Chapter 02
00:13:48.661 : en:Chapter 03
00:19:34.590 : en:Chapter 04
00:26:25.834 : en:Chapter 05
00:33:07.652 : en:Chapter 06
00:39:47.760 : en:Chapter 07
00:46:29.119 : en:Chapter 08
00:51:45.852 : en:Chapter 09
00:56:13.578 : en:Chapter 10
01:01:42.323 : en:Chapter 11
01:07:31.005 : en:Chapter 12
01:13:32.533 : en:Chapter 13
01:21:50.071 : en:Chapter 14
01:30:11.781 : en:Chapter 15
01:36:05.676 : en:Chapter 16
Меню #2
00:00:00.000 : :Chapter 01
00:06:11.913 : :Chapter 02
00:13:48.661 : :Chapter 03
00:19:34.590 : :Chapter 04
00:26:25.834 : :Chapter 05
00:33:07.652 : :Chapter 06
00:39:47.760 : :Chapter 07
00:46:29.119 : :Chapter 08
00:51:45.852 : :Chapter 09
00:56:13.578 : :Chapter 10
01:01:42.323 : :Chapter 11
01:07:31.005 : :Chapter 12
01:13:32.533 : :Chapter 13
01:21:50.071 : :Chapter 14
01:30:11.781 : :Chapter 15
01:36:05.676 : :Chapter 16
01:44:22.005 : :Chapter 17

[Цитировать]



Показать сообщения:    

Текущее время: 11-Дек 14:54

Часовой пояс: UTC + 3


Вы не можете начинать темы
Вы не можете отвечать на сообщения
Вы не можете редактировать свои сообщения
Вы не можете удалять свои сообщения
Вы не можете голосовать в опросах
Вы не можете прикреплять файлы к сообщениям
Вы не можете скачивать файлы

!ВНИМАНИЕ!
Сайт не предоставляет электронные версии произведений, а занимается лишь коллекционированием и каталогизацией ссылок, присылаемых и публикуемых на форуме нашими читателями. Если вы являетесь правообладателем какого-либо представленного материала и не желаете, чтобы ссылка на него находилась в нашем каталоге, свяжитесь с нами, и мы незамедлительно удалим ее. Файлы для обмена на трекере предоставлены пользователями сайта, и администрация не несет ответственности за их содержание. Просьба не заливать файлы, защищенные авторскими правами, а также файлы нелегального содержания!