[ Today is free to download without increasing Download ]

DL-List and Torrent activity
Complete: [ 1 ]
Тайная жизнь домашних животных / The Secret Life of Pets (2016) Страна: Япония США
Производство: Dentsu, Fuji Television Network Inc., Universal Pictures, Illumination Entertainment
Год выпуска: 2016
Жанр: мультфильм, комедия, семейный
Продолжительность: 01:23:15
Режиссеры: Ярроу Чейни, Крис Рено
Авторы сценария: Синко Пол, Кен Даурио, Брайан Линч
В ролях: Луис С.К., Эрик Стоунстрит, Кевин Харт, Дженни Слейт, Элли Кемпер, Альберт Брукс, Лэйк Белл, Дэна Карви, Хэннибал Бёресс
Описание: Что делают домашние животные пока хозяева пропадают на работе..? С тоской смотрят в окно..? Смиренно дремлют на коврике у двери..? Как бы не так. Они ведут свою тайную жизнь...

Перевод: Профессиональный (полное дублирование) | чистый звук
Субтитры: нет-Качество: TS
Формат: АVI
Видео кодек: XviD
Аудио кодек: АС3
Видео: 720x384 (1.85:1), 25.000 fps, XviD build 73 ~2 047 kbps avg
Аудио: 48 kHz, AC3 Dolby Digital, 2/0 (L,R) ch, ~192 kbps
Бюджет: $75 000 000
Дата премьеры (мир): 18 июня 2016
Дата премьеры (РФ): 18 августа 2016, «UPI»

Media Info

Complete name : The.Secret.Life.of.Pets.2016.D.TS.14OOMB.avi
Format : AVI
Format/Info : Audio Video Interleave
File size : 1.36 GiB
Duration : 1h 23mn
Overall bit rate : 2 341 Kbps
Writing application : VirtualDubMod | (build 2550/release)
Writing library : VirtualDubMod build 2550/release
Video #0
ID : 0
Format : MPEG-4 Visual
Format profile : Advanced Simple@L5
Format settings, BVOP : 1
Format settings, QPel : No
Format settings, GMC : No warppoints
Format settings, Matrix : Default (MPEG)
Codec ID : XVID
Codec ID/Hint : XviD
Duration : 1h 23mn
Bit rate : 2 047 Kbps
Width : 720 pixels
Height : 384 pixels
Display aspect ratio : 1.85:1
Frame rate : 25.000 fps
Color space : YUV
Chroma subsampling : 4:2:0
Bit depth : 8 bits
Scan type : Progressive
Compression mode : Lossy
Bits/(Pixel*Frame) : 0.296
Stream size : 1.19 GiB (87%)
Writing library : XviD 73
Audio #1
ID : 1
Format : AC-3
Format/Info : Audio Coding 3
Mode extension : CM (complete main)
Format settings, Endianness : Big
Codec ID : 2000
Duration : 1h 23mn
Bit rate mode : Constant
Bit rate : 192 Kbps
Channel(s) : 2 channels
Channel positions : Front: L R
Sampling rate : 48.0 KHz
Compression mode : Lossy
Stream size : 114 MiB (8%)
Alignment : Split accross interleaves



Display posts:    

Current time is: 28-Oct 11:25

All times are UTC + 3

You cannot post new topics in this forum
You cannot reply to topics in this forum
You cannot edit your posts in this forum
You cannot delete your posts in this forum
You cannot vote in polls in this forum
You cannot attach files in this forum
You cannot download files in this forum

The site does not give electronic versions of products, and is engaged only in a collecting and cataloguing of the references sent and published at a forum by our readers. If you are the legal owner of any submitted material and do not wish that the reference to it was in our catalogue, contact us and we shall immediately remove her. Files for an exchange on tracker are given by users of a site, and the administration does not bear the responsibility for their maintenance. The request to not fill in the files protected by copyrights, and also files of the illegal maintenance!