[ Сегодня идет свободное скачивание без начисления Download ]


Статистика раздачи
Буду качать: [ 1 ]
Скачал: [ 1 ]
 
   
 
Top  
 
 
Экипаж (2016) Информация о фильме
Название: Экипаж
Год выхода: 2016
Выпущено: Студия Тритэ
Страна: Россия
Жанр: Драма, приключения, триллер
Продолжительность: 02:17:12
Перевод: Не требуется
Режиссер: Николай Лебедев (IV)
В ролях: Данила Козловский, Владимир Машков, Агне Грудите, Сергей Кемпо, Катерина Шпица, Сергей Шакуров, Сергей Газаров, Елена Яковлева, Алёна Бабенко, Сергей Романович, Ксения Георгиади, Ирина Лачина, Вячеслав Разбегаев, Владимир Яглыч, Василий Мищенко, Дмитрий Золотухин, Ирина Пегова, Иван Агапов, Ольга Литвинова, Ирина Низина
-Сюжет фильма
История талантливого молодого лётчика Алексея Гущина. Он не признаёт авторитетов, предпочитая поступать в соответствии с личным кодексом чести. За невыполнение абсурдного приказа его выгоняют из военной авиации, и только чудом он получает шанс летать на гражданских самолётах. Гущин начинает свою лётную жизнь сначала. Его наставник - командир воздушного судна - суровый и принципиальный Леонид Зинченко. Его коллега - второй пилот, неприступная красавица Александра. Отношения складываются непросто. Но на грани жизни и смерти, когда земля уходит из-под ног, вокруг - огонь и пепел и только в небе есть спасение, Гущин показывает всё, на что он способен. Только вместе экипаж сможет совершить подвиг и спасти сотни жизней.-Файл
Кодек: x264
Формат: MKV
Качество: BDRip 1080p (Источник: Blu-ray)
Видео: MPEG-4 AVC 1920x816 pix, 23.976 fps, 9546 kbps
Аудио: Dolby Digital 5.1 ch, 48 kHz, 640 kbps
Меню: Сохранены оригинальные чаптеры Blu-ray

MI & x264

x264 [info]: frame I:1437 Avg QP:13.87 size:149802
x264 [info]: frame P:48685 Avg QP:16.37 size: 80356
x264 [info]: frame B:147253 Avg QP:18.18 size: 38654
x264 [info]: consecutive B-frames: 4.5% 3.8% 13.7% 15.6% 8.4% 50.6% 1.6% 1.0% 0.8%-General
Unique ID : 172105626228890737586533737991214864119 (0x817A56819BDC4446B0195ACDF90616F7)
Format : Matroska
Format version : Version 2
File size : 9.76 GiB
Duration : 2h 17mn
Overall bit rate : 10.2 Mbps
Movie name : Экипаж (2016) BDRip (1080p)
Encoded date : UTC 2016-08-22 05:05:50
Writing application : mkvmerge v5.8.0 ('No Sleep / Pillow') built on Sep 2 2012 15:37:04
Writing library : libebml v1.2.3 + libmatroska v1.3.0
Video
ID : 1
Format : AVC
Format/Info : Advanced Video Codec
Format profile : High@L4.1
Format settings, CABAC : Yes
Format settings, ReFrames : 5 frames
Codec ID : V_MPEG4/ISO/AVC
Duration : 2h 17mn
Bit rate : 9 546 Kbps
Width : 1 920 pixels
Height : 816 pixels
Display aspect ratio : 2.35:1
Frame rate mode : Constant
Frame rate : 23.976 fps
Color space : YUV
Chroma subsampling : 4:2:0
Bit depth : 8 bits
Scan type : Progressive
Bits/(Pixel*Frame) : 0.254
Stream size : 8.95 GiB (92%)
Title : Release by Alex260680
Writing library : x264 core 148 r2597 e86f3a1
Encoding settings : cabac=1 / ref=5 / deblock=1:-3:-3 / analyse=0x3:0x133 / me=esa / subme=11 / psy=1 / psy_rd=1.05:0.00 / mixed_ref=1 / me_range=32 / chroma_me=1 / trellis=2 / 8x8dct=1 / cqm=0 / deadzone=21,11 / fast_pskip=0 / chroma_qp_offset=-2 / threads=6 / lookahead_threads=1 / sliced_threads=0 / nr=0 / decimate=0 / interlaced=0 / bluray_compat=0 / constrained_intra=0 / bframes=8 / b_pyramid=2 / b_adapt=2 / b_bias=0 / direct=3 / weightb=1 / open_gop=0 / weightp=2 / keyint=240 / keyint_min=23 / scenecut=40 / intra_refresh=0 / rc=full2pass / mbtree=0 / bitrate=9546 / ratetol=1.0 / qcomp=0.60 / qpmin=0 / qpmax=69 / qpstep=4 / cplxblur=20.0 / qblur=0.5 / ip_ratio=1.40 / pb_ratio=1.30 / aq=1:0.70
Language : Russian
Default : Yes
Forced : No
Audio
ID : 2
Format : AC-3
Format/Info : Audio Coding 3
Mode extension : CM (complete main)
Format settings, Endianness : Big
Codec ID : A_AC3
Duration : 2h 17mn
Bit rate mode : Constant
Bit rate : 640 Kbps
Channel(s) : 6 channels
Channel positions : Front: L C R, Side: L R, LFE
Sampling rate : 48.0 KHz
Bit depth : 16 bits
Compression mode : Lossy
Stream size : 628 MiB (6%)
Title : Original
Language : Russian
Default : Yes
Forced : No
Menu
00:00:00.000 : en:Chapter 01
00:10:07.315 : en:Chapter 02
00:22:12.706 : en:Chapter 03
00:32:04.464 : en:Chapter 04
00:44:39.426 : en:Chapter 05
00:54:12.749 : en:Chapter 06
01:05:24.003 : en:Chapter 07
01:17:50.374 : en:Chapter 08
01:29:18.436 : en:Chapter 09
01:37:11.659 : en:Chapter 10
01:49:33.733 : en:Chapter 11
02:05:27.603 : en:Chapter 12
ЦитатаКто-то писал:• Рип с лицензии, а не с "кривого" ремукса с недостающими кадрами и кадрами дублями.
Видео с Blu-ray 3D Disc [3D/2D] RUS
Аудио с Blu-ray Disc [2D] RUS

[Цитировать]



Показать сообщения:    

Текущее время: 09-Дек 14:30

Часовой пояс: UTC + 3


Вы не можете начинать темы
Вы не можете отвечать на сообщения
Вы не можете редактировать свои сообщения
Вы не можете удалять свои сообщения
Вы не можете голосовать в опросах
Вы не можете прикреплять файлы к сообщениям
Вы не можете скачивать файлы

!ВНИМАНИЕ!
Сайт не предоставляет электронные версии произведений, а занимается лишь коллекционированием и каталогизацией ссылок, присылаемых и публикуемых на форуме нашими читателями. Если вы являетесь правообладателем какого-либо представленного материала и не желаете, чтобы ссылка на него находилась в нашем каталоге, свяжитесь с нами, и мы незамедлительно удалим ее. Файлы для обмена на трекере предоставлены пользователями сайта, и администрация не несет ответственности за их содержание. Просьба не заливать файлы, защищенные авторскими правами, а также файлы нелегального содержания!