[ Сегодня идет свободное скачивание без начисления Download ]


Статистика раздачи
Нет
 
   
 
Top  
 
 
Арабеска / Arabesque (1966) Информация о фильме
Название: Арабеска
Оригинальное название: Arabesque
Год выхода: 1966
Жанр: Боевик, триллер, драма, мелодрама, криминал, детектив, приключения
Режиссер: Стэнли Донен
В ролях: Грегори Пек, Софи Лорен, Алан Бадел, Кирон Мур, Карл Дюринг, Джон Меривэйл, Дункан Ламонт, Джордж Кулурис, Эрнест Кларк, Харольд Каскет
О фильме:
Американский профессор, специализирующийся на иероглифах, приезжает в Оксфорд, чтобы расшифровать секретное сообщение, содержание которого интересует и шпионов, и нефтяных шейхов и ряд лидеров Ближнего Востока. Ему помогает сексапильная любовница нефтяного магната с политическими амбициями.
Страна: США
Студия: Stanley Donen Films
Продолжительность: 01:45:24
Перевод: Профессиональный многоголосый
Файл
Кодек: x264
Качество: BDRip-AVC (Arabesque.1966.BDRemux.1080p.NovaLan)
Видео: MPEG-4 AVC, 2572 Кбит/с, 1024х432, 23.976 кадр/с
Аудио #1: AC3, 2 ch, 192 Кбит/с | Русский
Аудио #2: AC3, 2 ch, 192 Кбит/с | Английский

MediaInfo

Общее
Уникальный идентификатор : 222702851486238952444335574496031947541 (0xA78B02504CBD161EB0F7BA2EFA1A3B15)
Полное имя : Arabesque.1966.BDRip-AVC.mkv
Формат : Matroska
Версия формата : Version 4 / Version 2
Размер файла : 2,18 Гбайт
Продолжительность : 1 ч. 45 м.
Общий поток : 2958 Кбит/сек
Название фильма : Arabesque
Режиссёр : Stanley Donen
Дата кодирования : UTC 2016-08-24 06:14:56
Программа кодирования : mkvmerge v9.2.0 ('Photograph') 32bit
Библиотека кодирования : libebml v1.3.3 + libmatroska v1.4.4
Обложка : Yes
Attachments : cover.jpg
Release : Koenig
Видео
Идентификатор : 1
Формат : AVC
Формат/Информация : Advanced Video Codec
Профиль формата : High@L4.1
Параметр CABAC формата : Да
Параметр ReFrames формата : 9 кадров
Идентификатор кодека : V_MPEG4/ISO/AVC
Продолжительность : 1 ч. 45 м.
Битрейт : 2572 Кбит/сек
Ширина : 1024 пикселя
Высота : 432 пикселя
Соотношение сторон : 2,40:1
Режим частоты кадров : Постоянный
Частота кадров : 23,976 (24000/1001) кадра/сек
Цветовое пространство : YUV
Субдискретизация насыщенности : 4:2:0
Битовая глубина : 8 бит
Тип развёртки : Прогрессивная
Бит/(Пиксели*Кадры) : 0.242
Размер потока : 1,89 Гбайт (87%)
Библиотека кодирования : x264 core 148 r2692 64f4e24
Настройки программы : cabac=1 / ref=9 / deblock=1:-3:-3 / analyse=0x3:0x133 / me=umh / subme=10 / psy=1 / psy_rd=1.00:0.05 / mixed_ref=1 / me_range=32 / chroma_me=1 / trellis=2 / 8x8dct=1 / cqm=0 / deadzone=21,11 / fast_pskip=0 / chroma_qp_offset=-3 / threads=3 / lookahead_threads=1 / sliced_threads=0 / nr=0 / decimate=1 / interlaced=0 / bluray_compat=0 / constrained_intra=0 / bframes=10 / b_pyramid=2 / b_adapt=2 / b_bias=0 / direct=3 / weightb=1 / open_gop=0 / weightp=2 / keyint=240 / keyint_min=23 / scenecut=40 / intra_refresh=0 / rc_lookahead=40 / rc=2pass / mbtree=1 / bitrate=2572 / ratetol=1.0 / qcomp=0.60 / qpmin=10 / qpmax=51 / qpstep=4 / cplxblur=20.0 / qblur=0.5 / vbv_maxrate=50000 / vbv_bufsize=62500 / nal_hrd=none / filler=0 / ip_ratio=1.40 / aq=1:1.00
Default : Да
Forced : Нет
Аудио #1
Идентификатор : 2
Формат : AC-3
Формат/Информация : Audio Coding 3
Профиль формата : Dolby Digital
Расширение режима : CM (complete main)
Параметр Endianness формата : Big
Идентификатор кодека : A_AC3
Продолжительность : 1 ч. 45 м.
Вид битрейта : Постоянный
Битрейт : 192 Кбит/сек
Каналы : 2 канала
Расположение каналов : Front: L R
Частота : 48,0 КГц
Частота кадров : 31,250 кадров/сек (1536 spf)
Метод сжатия : С потерями
Размер потока : 145 Мбайт (6%)
Заголовок : MVO
Язык : Russian
Default : Да
Forced : Нет
Аудио #2
Идентификатор : 3
Формат : AC-3
Формат/Информация : Audio Coding 3
Расширение режима : CM (complete main)
Параметр Endianness формата : Big
Идентификатор кодека : A_AC3
Продолжительность : 1 ч. 45 м.
Вид битрейта : Постоянный
Битрейт : 192 Кбит/сек
Каналы : 2 канала
Расположение каналов : Front: L R
Частота : 48,0 КГц
Частота кадров : 31,250 кадров/сек (1536 spf)
Метод сжатия : С потерями
Размер потока : 145 Мбайт (6%)
Язык : English
Default : Нет
Forced : Нет
Меню
00:00:00.000 : en:
00:00:00.417 : en:
00:16:08.550 : en:
00:44:51.772 : en:
01:00:24.537 : en:
01:20:56.101 : en:
01:36:09.597 : en:
01:45:24.443 : en:

Скриншоты

[Цитировать]



Показать сообщения:    

Текущее время: 22-Фев 20:47

Часовой пояс: UTC + 3


Вы не можете начинать темы
Вы не можете отвечать на сообщения
Вы не можете редактировать свои сообщения
Вы не можете удалять свои сообщения
Вы не можете голосовать в опросах
Вы не можете прикреплять файлы к сообщениям
Вы не можете скачивать файлы

!ВНИМАНИЕ!
Сайт не предоставляет электронные версии произведений, а занимается лишь коллекционированием и каталогизацией ссылок, присылаемых и публикуемых на форуме нашими читателями. Если вы являетесь правообладателем какого-либо представленного материала и не желаете, чтобы ссылка на него находилась в нашем каталоге, свяжитесь с нами, и мы незамедлительно удалим ее. Файлы для обмена на трекере предоставлены пользователями сайта, и администрация не несет ответственности за их содержание. Просьба не заливать файлы, защищенные авторскими правами, а также файлы нелегального содержания!