[ Сегодня идет свободное скачивание без начисления Download ]


Статистика раздачи
Нет
 
   
 
Top  
 
 
-Джонни Мнемоник / Johnny Mnemonic (1995) BDRip- Русское название: Джонни Мнемоник
Оригинальное название: Johnny Mnemonic
Год выпуска: 1995
Страна: Канада, США
Слоган: «The hottest data on earth. In the coolest head in town.»
Жанр: Фантастика, боевик--Режиссер: Роберт Лонго
Актеры: Киану Ривз (Johnny Mnemonic), Дина Мейер (Jane), Айс-Ти (J-Bone), Такеши Китано (Takahashi), Деннис Акаяма (Shinji), Дольф Лундгрен (Street Preacher), Генри Роллинз (Spider), Барбара Зукова (Anna Kalmann), Удо Кир (Ralfi), Трейси Туид (Pretty), Фалконер Абрахам (Yomamma), Дон Фрэнкс (Hooky)-Описание фильма: В насквозь кибернетизированном будущем самый ценный товар - информация, доставляемая курьерами в самом надежном месте - в их собственном мозгу. Для того, чтобы преуспеть в этом бизнесе, Джонни «стер» воспоминания детства и расширил память сверхсовременных компьютерных приспособлений. Но и этого оказалось мало для информации, которую он взялся доставить. Если ее вовремя не сгрузить, то Джонни погибнет. Ставки велики, и информацию из головы (можно и с головой, но без Джонни) желает получить вездесущая японская мафия, подключающая к столь тонкому делу проповедника...- -Продолжительность: 01:36:40
Перевод: Многоголосый закадровый, двухголосый, авторский
Язык субтитров: Русские, английские, японские
Вид субтитров: Вшитые отключаемые--Качество видео: BDRip
Видеокодек: MPEG-4 AVC/H.264
Битрейт видео: ~ 5 825 Кбит/с
Размер кадра: 1280 x 720
Аудио 1: Русский: AC3 5.1, 448 Кбит/с, 48 kHz - Многоголосый
Аудио 2: Русский: AC3 5.1, 448 Кбит/с, 48 kHz - Двухголосый (EA Cinema)
Аудио 3: Англ-ий: AC3 5.1, 640 Кбит/с, 48 kHz
Аудио 4: Русский: AC3 5.1, 384 Кбит/с, 48 kHz - (Сергей Визгунов) - отдельно
Навигация по главам: есть
На японскую речь английские хардсабы.-

Media Info

General
Unique ID : 184471896091612828726295017400198203716 (0x8AC7FEAF04C6C58184854EBD4C778944)
Complete name : G:\Johnny.Mnemonic.1995.BluRay.720p.mkv
Format : Matroska
Format version : Version 2
File size : 4.98 GiB
Duration : 1h 36mn
Overall bit rate : 7 379 Kbps
Encoded date : UTC 2011-02-08 04:26:50
Writing application : mkvmerge v3.4.0 ('Rapunzel') сборка от May 15 2010 09:38:20
Writing library : libebml v0.8.0 + libmatroska v0.9.0
Video
ID : 1
Format : AVC
Format/Info : Advanced Video Codec
Format profile : High@L4.1
Format settings, CABAC : Yes
Format settings, ReFrames : 9 frames
Codec ID : V_MPEG4/ISO/AVC
Duration : 1h 36mn
Bit rate : 5 825 Kbps
Width : 1 280 pixels
Height : 720 pixels
Display aspect ratio : 16:9
Frame rate : 23.976 fps
Color space : YUV
Chroma subsampling : 4:2:0
Bit depth : 8 bits
Scan type : Progressive
Bits/(Pixel*Frame) : 0.264
Stream size : 3.85 GiB (77%)
Writing library : x264 core 107 r1772 c9dad9e
Encoding settings : cabac=1 / ref=9 / deblock=1:-3:-3 / analyse=0x3:0x113 / me=umh / subme=9 / psy=1 / psy_rd=1.10:0.15 / mixed_ref=1 / me_range=32 / chroma_me=1 / trellis=2 / 8x8dct=1 / cqm=2 / deadzone=21,11 / fast_pskip=0 / chroma_qp_offset=-2 / threads=6 / sliced_threads=0 / nr=0 / decimate=1 / interlaced=0 / constrained_intra=0 / bframes=5 / b_pyramid=2 / b_adapt=2 / b_bias=0 / direct=3 / weightb=1 / open_gop=0 / weightp=2 / keyint=250 / keyint_min=23 / scenecut=40 / intra_refresh=0 / rc_lookahead=60 / rc=2pass / mbtree=1 / bitrate=5825 / ratetol=1.0 / qcomp=0.60 / qpmin=10 / qpmax=51 / qpstep=4 / cplxblur=20.0 / qblur=0.5 / vbv_maxrate=40000 / vbv_bufsize=30000 / ip_ratio=1.40 / aq=1:0.80 / nal_hrd=none
Language : English
Default : Yes
Forced : Yes
Audio #1
ID : 2
Format : AC-3
Format/Info : Audio Coding 3
Mode extension : CM (complete main)
Codec ID : A_AC3
Duration : 1h 36mn
Bit rate mode : Constant
Bit rate : 448 Kbps
Channel(s) : 6 channels
Channel positions : Front: L C R, Side: L R, LFE
Sampling rate : 48.0 KHz
Bit depth : 16 bits
Compression mode : Lossy
Stream size : 310 MiB (6%)
Title : MVO
Language : Russian
Default : Yes
Forced : No
Audio #2
ID : 3
Format : AC-3
Format/Info : Audio Coding 3
Mode extension : CM (complete main)
Codec ID : A_AC3
Duration : 1h 36mn
Bit rate mode : Constant
Bit rate : 448 Kbps
Channel(s) : 6 channels
Channel positions : Front: L C R, Side: L R, LFE
Sampling rate : 48.0 KHz
Bit depth : 16 bits
Compression mode : Lossy
Stream size : 310 MiB (6%)
Title : DVO (EA Cinema)
Language : Russian
Default : No
Forced : No
Audio #3
ID : 4
Format : AC-3
Format/Info : Audio Coding 3
Mode extension : CM (complete main)
Codec ID : A_AC3
Duration : 1h 36mn
Bit rate mode : Constant
Bit rate : 640 Kbps
Channel(s) : 6 channels
Channel positions : Front: L C R, Side: L R, LFE
Sampling rate : 48.0 KHz
Bit depth : 16 bits
Compression mode : Lossy
Stream size : 443 MiB (9%)
Title : English AC3 5.1 640Kbps
Language : English
Default : No
Forced : Yes
Text #1
ID : 5
Format : UTF-8
Codec ID : S_TEXT/UTF8
Codec ID/Info : UTF-8 Plain Text
Title : Russian
Language : Russian
Default : No
Forced : No
Text #2
ID : 6
Format : UTF-8
Codec ID : S_TEXT/UTF8
Codec ID/Info : UTF-8 Plain Text
Title : English
Language : English
Default : No
Forced : No
Text #3
ID : 7
Format : PGS
Codec ID : S_HDMV/PGS
Codec ID/Info : The same subtitle format used on BDs/HD-DVDs
Title : Japanese
Language : Japanese
Default : No
Forced : No
Menu
00:00:00.000 : en:00:00:00.000
00:06:55.206 : en:00:06:55.206
00:15:55.454 : en:00:15:55.454
00:22:11.914 : en:00:22:11.914
00:33:15.493 : en:00:33:15.493
00:37:56.274 : en:00:37:56.274
00:46:44.969 : en:00:46:44.969
00:54:26.930 : en:00:54:26.930
01:01:41.364 : en:01:01:41.364
01:08:22.557 : en:01:08:22.557
01:16:36.217 : en:01:16:36.217
01:23:23.207 : en:01:23:23.207

Знаете ли Вы, что...

  • Первоначально на главные роли планировались Вэл Килмер и Джейн Марч.
  • Японская версия фильма длинее прокатной на семь минут.
  • На момент написания сценария (1993 год) планировалось сделать «Джонни Мнемоника» чёрно-белой картиной с бюджетом не больше миллиона долларов.
  • Картина находилась в пост-продакшене почти год.
  • Фильм был практически готов, когда на экраны вышла «Скорость» Яна де Бонта, в одночасье превратившая Киану Ривза в звезду жанра «экшен». Потому, боссы студии Sony приказали переснять часть сцен, добавить в фильм перестрелок и драк (изначально, фильм задумывался как ироничная смесь «нео-нуара» и «киберпанка» без каких-либо намёков на звание «блокбастера»), а также порядком «порезать» роль Дольфа Лундгрена, которую посчитали слишком «антирелигиозной».
  • Сценарист картины Уильям Гибсон утверждает, что снятый Робертом Лонго фильм и прокатная версия «Джонни Мнемоника» - это небо и земля. По его же словам, студия вырезала 90% роли Дольфа Лундгрена.
  • Фильм снят по одноименному рассказу Уильяма Гибсона.
  • Съемки фильма происходили в основном в Канаде (в Торонто и Монреале), но некоторые эпизоды снимались в небольшом американском городе Ньюарк (штат Нью-Джерси).
  • В одной из сцен, когда боевик якудза стреляет из противотанкового орудия, он держит его задом наперед. И вообще большая часть вооружения, показанная в фильме, является оружием для пейнтбола.
  • Композитор Майкл Дэнна написал музыку к японской версии фильма.
  • Полная версия фильма в Японии имела хронометраж 107 минут.
  • Телохранителя Джейн в рассказе нет вообще - Гибсон придумал ее специально для экранизации.
  • Объем информации, которую способен перевозить Джонни, всего 80 гигабайт; максимально возможный - 160 гигабайт.
  • Время потребовавшеесе на загрузку 320 Гб - 55 секунд, соответственно скорость загрузки 5,81 Гбсек или 46,5 Гигабитсек.
  • На момент выхода фильма (1995 год) ёмкость среднего жесткого диска составляла до 1 гигабайта, максимальная - 2 гигабайта.
-Скриншоты:
-Время раздачи: С 09:00 до 24:00

[Цитировать]



Показать сообщения:    

Текущее время: 09-Дек 03:03

Часовой пояс: UTC + 3


Вы не можете начинать темы
Вы не можете отвечать на сообщения
Вы не можете редактировать свои сообщения
Вы не можете удалять свои сообщения
Вы не можете голосовать в опросах
Вы не можете прикреплять файлы к сообщениям
Вы не можете скачивать файлы

!ВНИМАНИЕ!
Сайт не предоставляет электронные версии произведений, а занимается лишь коллекционированием и каталогизацией ссылок, присылаемых и публикуемых на форуме нашими читателями. Если вы являетесь правообладателем какого-либо представленного материала и не желаете, чтобы ссылка на него находилась в нашем каталоге, свяжитесь с нами, и мы незамедлительно удалим ее. Файлы для обмена на трекере предоставлены пользователями сайта, и администрация не несет ответственности за их содержание. Просьба не заливать файлы, защищенные авторскими правами, а также файлы нелегального содержания!