[ Today is free to download without increasing Download ]

DL-List and Torrent activity
Complete: [ 1 ]
Темнота / The Darkness (2016) Страна: США
Производство: Blumhouse Productions, Chapter One Films
Год выпуска: 2016
Жанр: ужасы, триллер
Продолжительность: 01:32:21
Режиссер: Грег МакЛин
Авторы сценария: Шэйн Армстронг, Шэйн Краузе, Грег МакЛин
В ролях: Дженнифер Моррисон, Кевин Бейкон, Минг-На, Рада Митчелл, Люси Фрай, Тара Барр, Дэвид Мазоуз, Мэтт Уолш, Пол Райзер
Описание: После отпуска в Гранд-Каньоне семья возвращается домой, невольно прихватив с собой нечто сверхъестественное. Не заставив себя долго ждать, это нечто начинает питаться их страхами и секретами…

Перевод: Любительский (двухголосый, закадровый) | RecentFilms
Субтитры: нет-Качество: HDRip
Формат: АVI
Видео кодек: XviD
Аудио кодек: АС3
Видео: 720x304 (2.35:1), 23.976 fps, XviD build 65 ~2 059 kbps avg
Аудио: 48.0 kHz, AC3 Dolby Digital, 2/0 (L,R) ch, ~192 kbps
Бюджет: $4 000 000
Дата премьеры (мир): 13 мая 2016

Media Info

Format : AVI
Format/Info : Audio Video Interleave
File size : 1.46 GiB
Duration : 1h 32mn
Overall bit rate : 2 260 Kbps
Writing application : VirtualDubMod | (build 2550/release)
Writing library : VirtualDubMod build 2550/release
ID : 0
Format : MPEG-4 Visual
Format profile : Advanced Simple@L5
Format settings, BVOP : 1
Format settings, QPel : No
Format settings, GMC : No warppoints
Format settings, Matrix : Custom
Codec ID : XVID
Codec ID/Hint : XviD
Duration : 1h 32mn
Bit rate : 2 059 Kbps
Width : 720 pixels
Height : 304 pixels
Display aspect ratio : 2.35:1
Frame rate : 23.976 (23976/1000) fps
Color space : YUV
Chroma subsampling : 4:2:0
Bit depth : 8 bits
Scan type : Progressive
Compression mode : Lossy
Bits/(Pixel*Frame) : 0.392
Stream size : 1.33 GiB (91%)
Writing library : XviD 65
ID : 1
Format : AC-3
Format/Info : Audio Coding 3
Mode extension : CM (complete main)
Format settings, Endianness : Big
Codec ID : 2000
Duration : 1h 32mn
Bit rate mode : Constant
Bit rate : 192 Kbps
Channel(s) : 2 channels
Channel positions : Front: L R
Sampling rate : 48.0 KHz
Frame rate : 31.250 fps (1536 spf)
Compression mode : Lossy
Stream size : 127 MiB (8%)
Alignment : Split accross interleaves
Interleave, duration : 42 ms (1.00 video frame)
Interleave, preload duratio : 500 ms



Display posts:    

Current time is: 22-Oct 11:55

All times are UTC + 3

You cannot post new topics in this forum
You cannot reply to topics in this forum
You cannot edit your posts in this forum
You cannot delete your posts in this forum
You cannot vote in polls in this forum
You cannot attach files in this forum
You cannot download files in this forum

The site does not give electronic versions of products, and is engaged only in a collecting and cataloguing of the references sent and published at a forum by our readers. If you are the legal owner of any submitted material and do not wish that the reference to it was in our catalogue, contact us and we shall immediately remove her. Files for an exchange on tracker are given by users of a site, and the administration does not bear the responsibility for their maintenance. The request to not fill in the files protected by copyrights, and also files of the illegal maintenance!