[ Сегодня идет свободное скачивание без начисления Download ]


Статистика раздачи
Нет
 
   
 
Top  
 
 
Порнократия / Anatomie de l'enfer (2004) Название: Порнократия
Оригинальное название: Anatomie de l'enfer
Год выхода: 2004
Страна: Франция
Студия: CB Films, Canal+, Centre National de la Cinématographie (CNC)
Продолжительность: 01:13:34
Жанр: драма, ...
Режиссер: Катрин Брейя
В ролях: Амира Казар, Рокко Сиффреди, Александр Белин, Мануэль Тальянг, Жак Мондж, Клаудио Карвальо, Каролина Лопез, Диего Родригес, Жоао Маркес, Бруно Фернандес, Мария Эдит Морейра, Мария Жоао Сантос, Полин Хант, ...
Голос за кадром: Катрин Брейя
Перевод: Профессиональный (многоголосный, закадровый) ?
О фильме: Она — девушка умопомрачительной красоты, однако, ее почему-то игнорируют. Ему не нравятся женщины, но она готова заплатить, чтобы он взглянул на нее…
Четыре ночи, в доме с четырьмя колоннами, находящемся на вершине утеса. Четыре ночи «войны» его и ее. Четыре ночи, чтобы оказаться лицом к лицу с невысказанным…

Кодек: x264
Качество: DVDRip-AVC
Видео: 760x408, 3000 kbps, 25 fps
Аудио #1: AC-3, 6 ch, 448 kbps (Rus) - MVO
Аудио #2: AC-3, 6 ch, 448 kbps (Fre)
Субтитры: Русские, Английские

Дополнительная информация

За исходник спасибо - Your_Luna
Сравниваем с рипом на 1.36 GB:

MediaInfo

x264 [info]: frame I:511 Avg QP:10.76 size: 56882
x264 [info]: frame P:20163 Avg QP:12.97 size: 29068
x264 [info]: frame B:89696 Avg QP:14.75 size: 11594
x264 [info]: consecutive B-frames: 1.3% 0.8% 3.5% 5.0% 7.1% 73.7% 2.6% 0.5% 1.0% 0.2% 0.3% 3.6% 0.4%
Общее
Уникальный идентификатор : 171176926361136527867979842449793738554 (0x80C77A1150AD6C788E18B64DA6D9E73A)
Полное имя : Порнократия (Anatomie de l'enfer) 2004 DVDRip.mkv
Формат : Matroska
Версия формата : Version 2
Размер файла : 2,00 Гбайт
Продолжительность : 1 ч. 13 м.
Общий поток : 3897 Кбит/сек
Дата кодирования : UTC 2016-08-13 17:26:39
Программа кодирования : mkvmerge v4.0.0 ('The Stars were mine') сборка от Jun 6 2010 16:18:42
Библиотека кодирования : libebml v1.0.0 + libmatroska v1.0.0
Видео
Идентификатор : 1
Формат : AVC
Формат/Информация : Advanced Video Codec
Профиль формата : High@L4.1
Параметр CABAC формата : Да
Параметр ReFrames формата : 12 кадров
Идентификатор кодека : V_MPEG4/ISO/AVC
Продолжительность : 1 ч. 13 м.
Битрейт : 3000 Кбит/сек
Ширина : 760 пикселей
Высота : 408 пикселей
Соотношение сторон : 1,85:1
Режим частоты кадров : Постоянный
Частота кадров : 25,000 кадров/сек
Цветовое пространство : YUV
Субдискретизация насыщенности : 4:2:0
Битовая глубина : 8 бит
Тип развёртки : Прогрессивная
Бит/(Пиксели*Кадры) : 0.387
Размер потока : 1,50 Гбайт (75%)
Библиотека кодирования : x264 core 146 r2538 121396c
Настройки программы : cabac=1 / ref=12 / deblock=1:-3:-3 / analyse=0x3:0x133 / me=umh / subme=11 / psy=1 / psy_rd=1.00:0.00 / mixed_ref=1 / me_range=32 / chroma_me=1 / trellis=2 / 8x8dct=1 / cqm=0 / deadzone=21,11 / fast_pskip=0 / chroma_qp_offset=-2 / threads=12 / lookahead_threads=2 / sliced_threads=0 / nr=0 / decimate=0 / interlaced=0 / bluray_compat=0 / constrained_intra=0 / bframes=12 / b_pyramid=2 / b_adapt=2 / b_bias=0 / direct=3 / weightb=1 / open_gop=0 / weightp=2 / keyint=250 / keyint_min=25 / scenecut=40 / intra_refresh=0 / rc=2pass / mbtree=0 / bitrate=3000 / ratetol=1.0 / qcomp=0.60 / qpmin=0 / qpmax=69 / qpstep=4 / cplxblur=20.0 / qblur=0.5 / ip_ratio=1.40 / pb_ratio=1.30 / aq=1:0.80
Язык : French
Default : Нет
Forced : Нет
Аудио #1
Идентификатор : 2
Формат : AC-3
Формат/Информация : Audio Coding 3
Расширение режима : CM (complete main)
Параметр Endianness формата : Big
Идентификатор кодека : A_AC3
Продолжительность : 1 ч. 13 м.
Вид битрейта : Постоянный
Битрейт : 448 Кбит/сек
Каналы : 6 каналов
Расположение каналов : Front: L C R, Side: L R, LFE
Частота : 48,0 КГц
Частота кадров : 31,250 кадров/сек (1536 spf)
Метод сжатия : С потерями
Размер потока : 236 Мбайт (11%)
Заголовок : MVO
Язык : Russian
Default : Нет
Forced : Нет
Аудио #2
Идентификатор : 3
Формат : AC-3
Формат/Информация : Audio Coding 3
Расширение режима : CM (complete main)
Параметр Endianness формата : Big
Идентификатор кодека : A_AC3
Продолжительность : 1 ч. 13 м.
Вид битрейта : Постоянный
Битрейт : 448 Кбит/сек
Каналы : 6 каналов
Расположение каналов : Front: L C R, Side: L R, LFE
Частота : 48,0 КГц
Частота кадров : 31,250 кадров/сек (1536 spf)
Метод сжатия : С потерями
Размер потока : 236 Мбайт (11%)
Язык : French
Default : Нет
Forced : Нет
Текст #1
Идентификатор : 4
Формат : UTF-8
Идентификатор кодека : S_TEXT/UTF8
Идентификатор кодека/Информация : UTF-8 Plain Text
Язык : Russian
Default : Нет
Forced : Нет
Текст #2
Идентификатор : 5
Формат : UTF-8
Идентификатор кодека : S_TEXT/UTF8
Идентификатор кодека/Информация : UTF-8 Plain Text
Язык : English
Default : Нет
Forced : Нет

Скриншоты


[Цитировать]



Показать сообщения:    

Текущее время: 24-Фев 08:59

Часовой пояс: UTC + 3


Вы не можете начинать темы
Вы не можете отвечать на сообщения
Вы не можете редактировать свои сообщения
Вы не можете удалять свои сообщения
Вы не можете голосовать в опросах
Вы не можете прикреплять файлы к сообщениям
Вы не можете скачивать файлы

!ВНИМАНИЕ!
Сайт не предоставляет электронные версии произведений, а занимается лишь коллекционированием и каталогизацией ссылок, присылаемых и публикуемых на форуме нашими читателями. Если вы являетесь правообладателем какого-либо представленного материала и не желаете, чтобы ссылка на него находилась в нашем каталоге, свяжитесь с нами, и мы незамедлительно удалим ее. Файлы для обмена на трекере предоставлены пользователями сайта, и администрация не несет ответственности за их содержание. Просьба не заливать файлы, защищенные авторскими правами, а также файлы нелегального содержания!