[ Сегодня идет свободное скачивание без начисления Download ]


Статистика раздачи
Нет
 
   
 
Top  
 
 
Дорогая / Laadla (1994) DVDRip - Производство: Индия
Жанр: драма, семейный
Режиссер: Радж Канвар
Актеры: Анил Капур, Шридеви, Равина Тандон, Фарида Джалал, Аруна Ирани, Прем Чопра, Пареш Раваль, Мохниш Бехл, Анупам Кхер, Шакти Капур, Алок Натх, Калпана Айер, Викрам Гокхале, Рави Басвани, Арун Бакши, Джавед Кхан, Вахид, Динеш Хингу, Ханиф Шейх, Вайшнави
Описание:
Шитал — дочь владельца «фабрики N1» в Индии своенравна и заносчива. Когда на фабрику пришел работать простой механик Радж, он своим веселым характером и простотой очень сильно раззадорил безмерное самолюбие красавицы. Чтобы укротить непослушного весельчака, она решает… выйти за него замуж и там уже показать, кто в их семье носит брюки! Но наш герой так просто не ляжет под каблук жены-гордячки, так что поединок МУЖ-ЖЕНА разгорается с новой силой.

Продолжительность: 02:48:49
Качество видео: DVDRip СЭМПЛ
Перевод: Многоголосый закадровый, любительский (Zee Tv)
Видео: Xvid, 672x368, 1102 kbps
Аудио: MP3, 2 ch, 128 kbps

Mediainfo:

Dorogaya.1994.DVDRip.avi
Format                         : AVI
Format/Info                    : Audio Video Interleave
File size                      : 1.46 GiB
Duration                       : 2 h 48 min
Overall bit rate               : 1 240 kb/s
Writing application            : VirtualDubMod 1.5.10.2 (build 2540/release)
Writing library                : VirtualDubMod build 2540/release
Video
ID                             : 0
Format                         : MPEG-4 Visual
Format profile                 : Advanced Simple@L5
Format settings, BVOP          : 1
Format settings, QPel          : No
Format settings, GMC           : No warppoints
Format settings, Matrix        : Custom
Codec ID                       : XVID
Codec ID/Hint                  : XviD
Duration                       : 2 h 48 min
Bit rate                       : 1 102 kb/s
Width                          : 672 pixels
Height                         : 368 pixels
Display aspect ratio           : 1.85:1
Frame rate                     : 23.976 (24000/1001) FPS
Color space                    : YUV
Chroma subsampling             : 4:2:0
Bit depth                      : 8 bits
Scan type                      : Progressive
Compression mode               : Lossy
Bits/(Pixel*Frame)             : 0.186
Stream size                    : 1.30 GiB (89%)
Writing library                : XviD 1.2.1 (UTC 2008-12-04)
Audio
ID                             : 1
Format                         : MPEG Audio
Format version                 : Version 1
Format profile                 : Layer 3
Mode                           : Joint stereo
Mode extension                 : MS Stereo
Codec ID                       : 55
Codec ID/Hint                  : MP3
Duration                       : 2 h 48 min
Bit rate mode                  : Constant
Bit rate                       : 128 kb/s
Channel(s)                     : 2 channels
Sampling rate                  : 48.0 kHz
Compression mode               : Lossy
Stream size                    : 155 MiB (10%)
Alignment                      : Aligned on interleaves
Interleave, duration           : 42  ms (1.00 video frame)
Interleave, preload duration   : 504  ms
Writing library                : LAME3.98r
Encoding settings              : -m j -V 4 -q 2 -lowpass 17 -b 128
Скриншоты:

[Цитировать]



Показать сообщения:    

Текущее время: 07-Дек 11:41

Часовой пояс: UTC + 3


Вы не можете начинать темы
Вы не можете отвечать на сообщения
Вы не можете редактировать свои сообщения
Вы не можете удалять свои сообщения
Вы не можете голосовать в опросах
Вы не можете прикреплять файлы к сообщениям
Вы не можете скачивать файлы

!ВНИМАНИЕ!
Сайт не предоставляет электронные версии произведений, а занимается лишь коллекционированием и каталогизацией ссылок, присылаемых и публикуемых на форуме нашими читателями. Если вы являетесь правообладателем какого-либо представленного материала и не желаете, чтобы ссылка на него находилась в нашем каталоге, свяжитесь с нами, и мы незамедлительно удалим ее. Файлы для обмена на трекере предоставлены пользователями сайта, и администрация не несет ответственности за их содержание. Просьба не заливать файлы, защищенные авторскими правами, а также файлы нелегального содержания!