[ Сегодня идет свободное скачивание без начисления Download ]


Статистика раздачи
Нет
 
   
 
Top  
 
 
Индиана Джонс: В поисках утраченного ковчега / Raiders of the Lost Ark (1981) BDRip 1080p Информация о фильме
Название: Индиана Джонс: В поисках утраченного ковчега
Оригинальное название: Raiders of the Lost Ark
Год выхода: 1981
Жанр: боевик, приключения
Режиссер: Стивен Спилберг / Steven Spielberg
Харрисон Форд (Indiana Jones), Карен Аллен (Marion Ravenwood), Пол Фримен (Dr. René Belloq), Рональд Лейси (Major Arnold Toht), Джон Рис-Дэвис (Sallah), Денхолм Эллиот (Dr. Marcus Brody), Альфред Молина (Satipo), Вольф Калер (Colonel Dietrich), Энтони Хиггинс (Gobler), Вик Тэблиан (Barranca / Monkey Man), Дон Феллоуз (Col. Musgrove), Уильям Хуткинс (Major Eaton)
О фильме:
Известный археолог и специалист по оккультным наукам доктор Джонс получает опасное задание от правительства США. Он должен отправиться на поиски уникальной реликвии — священного Ковчега. Но Индиана и не подозревает, что аналогичный приказ уже получили тайные агенты Адольфа Гитлера…
Этим потрясающим фильмом продюсер Джордж Лукас и режиссер Стивен Спилберг положили начало саги о странствиях благородного доктора Джонса по всевозможным уголкам земного шара.

MPAA: PG - Рекомендуется присутствие родителей
Страна: США
Студия: Paramount Pictures, Lucasfilm Ltd.
Продолжительность: 01:55:18
Перевод: Профессиональный (многоголосый, закадровый)
Файл
Кодек: H.264
Качество: BDRip 1080p
Видео: AVC, 1920x816 (2.35:1), 9103 kbps, 23,976 fps, 0,242 bpp
Звук:
русский / AC3 / 5.1 / 48 kHz / 384 kbps / 16 bit |Многоголосый закадровый (Киномания)|
английский / AC3 / 5.1 / 48 kHz / 384 kbps / 16 bit
Субтитры: русские, английские, английские (SDH),

MI:

General
Unique ID : 246350328336724933256735708872616853791 (0xB95558F036139F24824CCE47EF8E411F)
Complete name : E:Raiders of the Lost Ark(1981)BDRip -F.HD.mkv
Format : Matroska
Format version : Version 2
File size : 7.95 GiB
Duration : 1h 55mn
Overall bit rate : 9 871 Kbps
Encoded date : UTC 2012-09-12 10:16:12
Writing application : mkvmerge v5.4.0 ('Piper') built on Mar 10 2012 13:34:39
Writing library : libebml v1.2.3 + libmatroska v1.3.0
Video
ID : 1
Format : AVC
Format/Info : Advanced Video Codec
Format profile : High@L4.1
Format settings, CABAC : Yes
Format settings, ReFrames : 5 frames
Codec ID : V_MPEG4/ISO/AVC
Duration : 1h 55mn
Bit rate : 9 103 Kbps
Width : 1 920 pixels
Height : 816 pixels
Display aspect ratio : 2.35:1
Frame rate : 23.976 fps
Color space : YUV
Chroma subsampling : 4:2:0
Bit depth : 8 bits
Scan type : Progressive
Bits/(Pixel*Frame) : 0.242
Stream size : 7.17 GiB (90%)
Writing library : x264 core 125 r2208 d9d2288
Encoding settings : cabac=1 / ref=5 / deblock=1:0:0 / analyse=0x3:0x113 / me=umh / subme=10 / psy=1 / psy_rd=1.00:0.15 / mixed_ref=1 / me_range=48 / chroma_me=1 / trellis=2 / 8x8dct=1 / cqm=0 / deadzone=21,11 / fast_pskip=0 / chroma_qp_offset=1 / threads=6 / lookahead_threads=1 / sliced_threads=0 / nr=0 / decimate=1 / interlaced=0 / bluray_compat=0 / constrained_intra=0 / bframes=7 / b_pyramid=2 / b_adapt=2 / b_bias=0 / direct=3 / weightb=1 / open_gop=0 / weightp=2 / keyint=240 / keyint_min=23 / scenecut=40 / intra_refresh=0 / rc=2pass / mbtree=0 / bitrate=9103 / ratetol=1.0 / qcomp=0.70 / qpmin=0 / qpmax=69 / qpstep=4 / cplxblur=20.0 / qblur=0.5 / ip_ratio=1.40 / pb_ratio=1.30 / aq=1:1.00
Language : English
Default : Yes
Forced : No
Audio #1
ID : 2
Format : AC-3
Format/Info : Audio Coding 3
Mode extension : CM (complete main)
Codec ID : A_AC3
Duration : 1h 55mn
Bit rate mode : Constant
Bit rate : 384 Kbps
Channel(s) : 6 channels
Channel positions : Front: L C R, Side: L R, LFE
Sampling rate : 48.0 KHz
Bit depth : 16 bits
Compression mode : Lossy
Stream size : 317 MiB (4%)
Language : Russian
Default : Yes
Forced : No
Audio #2
ID : 3
Format : AC-3
Format/Info : Audio Coding 3
Mode extension : CM (complete main)
Codec ID : A_AC3
Duration : 1h 55mn
Bit rate mode : Constant
Bit rate : 384 Kbps
Channel(s) : 6 channels
Channel positions : Front: L C R, Side: L R, LFE
Sampling rate : 48.0 KHz
Bit depth : 16 bits
Compression mode : Lossy
Stream size : 317 MiB (4%)
Language : English
Default : No
Forced : No
Text #1
ID : 4
Format : UTF-8
Codec ID : S_TEXT/UTF8
Codec ID/Info : UTF-8 Plain Text
Language : Russian
Default : No
Forced : No
Text #2
ID : 5
Format : UTF-8
Codec ID : S_TEXT/UTF8
Codec ID/Info : UTF-8 Plain Text
Language : English
Default : No
Forced : No
Text #3
ID : 6
Format : UTF-8
Codec ID : S_TEXT/UTF8
Codec ID/Info : UTF-8 Plain Text
Title : SDH
Language : English
Default : No
Forced : No
Menu
00:00:00.000 : en:Chapter 01
00:03:16.529 : en:Chapter 02
00:05:44.635 : en:Chapter 03
00:09:51.131 : en:Chapter 04
00:12:49.351 : en:Chapter 05
00:15:23.631 : en:Chapter 06
00:20:27.434 : en:Chapter 07
00:22:58.417 : en:Chapter 08
00:28:51.354 : en:Chapter 09
00:33:42.395 : en:Chapter 10
00:36:23.389 : en:Chapter 11
00:40:04.819 : en:Chapter 12
00:42:16.158 : en:Chapter 13
00:46:41.507 : en:Chapter 14
00:49:32.928 : en:Chapter 15
00:51:00.931 : en:Chapter 16
00:55:11.141 : en:Chapter 17
00:58:33.218 : en:Chapter 18
01:03:05.740 : en:Chapter 19
01:08:26.143 : en:Chapter 20
01:10:25.345 : en:Chapter 21
01:15:33.153 : en:Chapter 22
01:22:24.356 : en:Chapter 23
01:25:43.763 : en:Chapter 24
01:29:57.517 : en:Chapter 25
01:34:30.665 : en:Chapter 26
01:38:06.171 : en:Chapter 27
01:41:06.060 : en:Chapter 28
01:44:06.823 : en:Chapter 29
01:47:01.415 : en:Chapter 30
01:49:05.997 : en:Chapter 31
01:55:18.620 : en:Chapter 32

Скриншоты:



[Цитировать]



Показать сообщения:    

Текущее время: 11-Дек 13:01

Часовой пояс: UTC + 3


Вы не можете начинать темы
Вы не можете отвечать на сообщения
Вы не можете редактировать свои сообщения
Вы не можете удалять свои сообщения
Вы не можете голосовать в опросах
Вы не можете прикреплять файлы к сообщениям
Вы не можете скачивать файлы

!ВНИМАНИЕ!
Сайт не предоставляет электронные версии произведений, а занимается лишь коллекционированием и каталогизацией ссылок, присылаемых и публикуемых на форуме нашими читателями. Если вы являетесь правообладателем какого-либо представленного материала и не желаете, чтобы ссылка на него находилась в нашем каталоге, свяжитесь с нами, и мы незамедлительно удалим ее. Файлы для обмена на трекере предоставлены пользователями сайта, и администрация не несет ответственности за их содержание. Просьба не заливать файлы, защищенные авторскими правами, а также файлы нелегального содержания!