[ Today is free to download without increasing Download ]

DL-List and Torrent activity
Сибирский траффик (2015) WEB-DLRip Информация о фильме
Название: Сибирский траффик
Год выхода: 2015
Жанр: Боевик, криминал
Режиссер: Сергей Грозных
В ролях: Николай Устинов, Анна Захарова, Олег Захаров, Елена Бессмертная, Екатерина Спирина, Михаил Попов, Равиль Валиев, Евгений Писанков...
О фильме:
Офицер в отставке Руслан Бероев выходит на пенсию, и казалось, что суровые будни закончены. Один за другим начинают пропадать сотрудники спецотдела и бывший сослуживец просит Руслана о помощи в раскрытии преступлений. Бероев не ожидал, что эта помощь обернётся для него войной, войной за себя, за свою семью и свою страну.

Страна: Россия
Студия: КиноОлимп, Сибирь
Продолжительность: 01:29:18
Кодек: XviD (AVI)
Качество: WEB-DLRip
Видео: 688x288 (2.40:1), 25 fps, XviD build 73 ~1030 kbps avg, 0.208 bit/pixel
Звук: 48 kHz, MPEG Layer 3, 2 ch, ~128.00 kbps avg


Complete name : Sibirskij.Traffik.2015.XviD.WEB-DLRip.by.GeneralFilm.avi
Format : AVI
Format/Info : Audio Video Interleave
File size : 746 MiB
Duration : 1h 29mn
Overall bit rate : 1 168 Kbps
Writing application : VirtualDubMod | www.virtualdub-fr.org || (build 2550/release)
Writing library : VirtualDubMod build 2550/release
ID : 0
Format : MPEG-4 Visual
Format profile : Advanced Simple@L5
Format settings, BVOP : 1
Format settings, QPel : No
Format settings, GMC : No warppoints
Format settings, Matrix : Custom
Codec ID : XVID
Codec ID/Hint : XviD
Duration : 1h 29mn
Bit rate : 1 030 Kbps
Width : 688 pixels
Height : 288 pixels
Display aspect ratio : 2.40:1
Frame rate : 25.000 fps
Color space : YUV
Chroma subsampling : 4:2:0
Bit depth : 8 bits
Scan type : Progressive
Compression mode : Lossy
Bits/(Pixel*Frame) : 0.208
Stream size : 658 MiB (88%)
Writing library : XviD 73
ID : 1
Format : MPEG Audio
Format version : Version 1
Format profile : Layer 3
Codec ID : 55
Codec ID/Hint : MP3
Duration : 1h 29mn
Bit rate mode : Constant
Bit rate : 128 Kbps
Channel(s) : 2 channels
Sampling rate : 44.1 KHz
Compression mode : Lossy
Stream size : 81.8 MiB (11%)
Alignment : Split accross interleaves
Interleave, duration : 40 ms (1.00 video frame)
Interleave, preload duratio : 500 ms
Writing library : LAME3.99r
Encoding settings : -m s -V 4 -q 0 -lowpass 17 -b 128



Display posts:    

Current time is: 26-Oct 16:19

All times are UTC + 3

You cannot post new topics in this forum
You cannot reply to topics in this forum
You cannot edit your posts in this forum
You cannot delete your posts in this forum
You cannot vote in polls in this forum
You cannot attach files in this forum
You cannot download files in this forum

The site does not give electronic versions of products, and is engaged only in a collecting and cataloguing of the references sent and published at a forum by our readers. If you are the legal owner of any submitted material and do not wish that the reference to it was in our catalogue, contact us and we shall immediately remove her. Files for an exchange on tracker are given by users of a site, and the administration does not bear the responsibility for their maintenance. The request to not fill in the files protected by copyrights, and also files of the illegal maintenance!